۩ ‼ Вы находитесь на Бесплатном торрент-трекере TORRNADA.com ۩ Зарегистрируйтесь для получения полного доступа ко всем функциям сайта ! ۩ После регистрации подпишитесь на нашу рассылку в своём профиле ۩
Auto Web Pinger

 

[Цитировать]

-- Страна: СССР
Производство: Мосфильм
Жанр: документальный, военный, история
Год выпуска: 1965
Продолжительность: 02:10:00 (01:07:58 + 01:02:02)
Перевод: Не требуется
Cубтитры: нет
Оригинальная аудиодорожка: русский
Режиссер: Михаил Ромм
В ролях:
Михаил Ромм, Марлен Дитрих, Дзюкити Уно...
Описание:
«Показывая вам нашу картину, мы, разумеется, не рассчитывали осветить все формы такого явления как фашизм. Это невозможно в пределах одной картины. Да это невозможно хотя бы потому, что многое, очень важное, не оставило никаких следов на пленке. Не было снято. Из огромного количества материала мы отобрали то, что показалось нам самым поразительным, что дает нам возможность вместе с вами поразмышлять…»- -Источник: DVD9 R5
Качество видео: DVDRip-AVC
Формат видео: MKV
Видео: 688->734x550 (4:3), 25 fps, H264 ~ 1410 kbps avg, 0.149 bit/pixel
Аудио: 48 kHz, Dolby Digital AC3 2.0, 192 kbps
Раздача от:

MediaInfo

Общее
Полное имя : Obyknovennyy.fashizm.1965.DVDRip-AVC_[New-team]_by_AVP_StudioЧасть 1.mkv
Формат : Matroska
Версия формата : Version 2
Размер файла : 780 Мбайт
Продолжительность : 1 ч. 7 м.
Общий поток : 1604 Кбит/сек
Дата кодирования : UTC 2015-03-04 16:32:41
Программа кодирования : mkvmerge v6.1.0 ('Old Devil') built on Mar 4 2013 09:10:42
Библиотека кодирования : libebml v1.3.0 + libmatroska v1.4.0
Видео
Идентификатор : 1
Формат : AVC
Формат/Информация : Advanced Video Codec
Профиль формата : High@L4.1
Параметр CABAC формата : Да
Параметр ReFrames формата : 8 кадров
Идентификатор кодека : V_MPEG4/ISO/AVC
Продолжительность : 1 ч. 7 м.
Битрейт : 1410 Кбит/сек
Ширина : 688 пикселей
Высота : 550 пикселей
Соотношение сторон : 4:3
Режим частоты кадров : Постоянный
Частота кадров : 25,000 кадров/сек
Цветовое пространство : YUV
Субдискретизация насыщенности : 4:2:0
Битовая глубина : 8 бит
Тип развёртки : Прогрессивная
Бит/(Пиксели*Кадры) : 0.149
Размер потока : 671 Мбайт (86%)
Библиотека кодирования : x264 core 138 r2356 a1d3d17
Настройки программы : cabac=1 / ref=8 / deblock=1:-2:-1 / analyse=0x3:0x113 / me=umh / subme=10 / psy=1 / psy_rd=1.00:0.05 / mixed_ref=1 / me_range=32 / chroma_me=1 / trellis=2 / 8x8dct=1 / cqm=0 / deadzone=21,11 / fast_pskip=0 / chroma_qp_offset=-3 / threads=6 / lookahead_threads=1 / sliced_threads=0 / nr=0 / decimate=0 / interlaced=0 / bluray_compat=0 / constrained_intra=0 / bframes=8 / b_pyramid=2 / b_adapt=2 / b_bias=0 / direct=3 / weightb=1 / open_gop=0 / weightp=2 / keyint=250 / keyint_min=25 / scenecut=40 / intra_refresh=0 / rc=2pass / mbtree=0 / bitrate=1410 / ratetol=1.0 / qcomp=0.60 / qpmin=0 / qpmax=69 / qpstep=4 / cplxblur=20.0 / qblur=0.5 / ip_ratio=1.40 / pb_ratio=1.30 / aq=1:1.00
Default : Да
Forced : Нет
Аудио
Идентификатор : 2
Формат : AC-3
Формат/Информация : Audio Coding 3
Расширение режима : CM (complete main)
Параметр Endianness формата : Big
Идентификатор кодека : A_AC3
Продолжительность : 1 ч. 7 м.
Вид битрейта : Постоянный
Битрейт : 192 Кбит/сек
Каналы : 2 канала
Расположение каналов : Front: L R
Частота : 48,0 КГц
Битовая глубина : 16 бит
Метод сжатия : С потерями
Размер потока : 93,3 Мбайт (12%)
Default : Да
Forced : Нет

Скриншоты

[Цитировать]

я так понял что фильм "почему-то" удален. кто бы сомневался...

[Цитировать]

а сам фильм то где ???
и ЧТО это такое
This is not a bencoded file
Вернуться в тему
Вернуться в форум
Вернуться на главную

[Цитировать]

urgent, магнетка работает прекрасно. Тыкни, и пойдёт закачка. Я проверил, всё работает.
Вспомнил, что нас в обязательном порядке отправляли смотреть этот фильм.


Показать сообщения:    

Текущее время: 22-Май 10:13

Часовой пояс: UTC + 3


Вы не можете начинать темы
Вы не можете отвечать на сообщения
Вы не можете редактировать свои сообщения
Вы не можете удалять свои сообщения
Вы не можете голосовать в опросах
Вы не можете прикреплять файлы к сообщениям
Вы не можете скачивать файлы

!ВНИМАНИЕ!
Сайт не предоставляет электронные версии произведений, а занимается лишь коллекционированием и каталогизацией ссылок, присылаемых и публикуемых на форуме нашими читателями. Если вы являетесь правообладателем какого-либо представленного материала и не желаете, чтобы ссылка на него находилась в нашем каталоге, свяжитесь с нами, и мы незамедлительно удалим ее. Файлы для обмена на трекере предоставлены пользователями сайта, и администрация не несет ответственности за их содержание. Просьба не заливать файлы, защищенные авторскими правами, а также файлы нелегального содержания!