۩ ‼ Вы находитесь на нашем зеркале TORRNADA.com ۩ Сайт находится в разработке ! ۩ Основной сайт - TorrnNADO.win ۩
Статистика раздачи
Буду качать: [ 1 ]
Качаю: [ 1 ]
Скачал: [ 9 ]
 
   
 
 

[Цитировать]
MOT®OSS

Константин Шереметьев | Программирование баз данных на SQLite (2018) PCRec - Автор (режиссер): Константин Шереметьев
Жанр: Программирование, Базы данных, SQLite
Описание:
Данный курс - отличное руководство для тех, кто хочет программировать за деньги. Минимум воды и теории, в курс вошли только те приёмы, которые реально используются на практике. Константин рассказывает не только о том, как написать программу, но и как взаимодействовать с заказчиком (получить заказ и затем оплату).
Продолжительность: 05:35:59
Качество видео: PCRec
Видео: AVC/H.264, 1920x1080, ~509-524 Kbps
Аудио: AAC, 2 ch, 96-161 Kbps

Mediainfo:

Общее
Полное имя : .\01 Основы баз данных\1.1 Настройка Среды Codeblocks.mp4
Формат : MPEG-4
Профиль формата : Base Media / Version 2
Идентификатор кодека : mp42 (isom/iso2/avc1/mp41)
Размер файла : 44,1 Мбайт
Продолжительность : 10 м. 4 с.
Режим общего битрейта : Переменный
Общий поток : 612 Кбит/сек
Дата кодирования : UTC 2018-10-09 20:52:14
Дата пометки : UTC 2018-10-09 20:52:14
Программа кодирования : HandBrake 1.0.7 2017040900
Видео
Идентификатор : 1
Формат : AVC
Формат/Информация : Advanced Video Codec
Профиль формата : Main@L4
Настройки формата : CABAC / 4 Ref Frames
Параметр CABAC формата : Да
Параметр RefFrames формата : 4 кадра
Идентификатор кодека : avc1
Идентификатор кодека/Информация : Advanced Video Coding
Продолжительность : 10 м. 4 с.
Битрейт : 512 Кбит/сек
Ширина : 1920 пикселей
Высота : 1080 пикселей
Соотношение сторон : 16:9
Режим частоты кадров : Постоянный
Частота кадров : 30,000 кадров/сек
Цветовое пространство : YUV
Субдискретизация насыщенности : 4:2:0
Битовая глубина : 8 бит
Тип развёртки : Прогрессивная
Бит/(Пиксели*Кадры) : 0.008
Размер потока : 36,7 Мбайт (83%)
Библиотека кодирования : x264 core 148 r2708 86b7198
Настройки программы : cabac=1 / ref=4 / deblock=1:0:0 / analyse=0x1:0x131 / me=umh / subme=9 / psy=1 / psy_rd=1.00:0.00 / mixed_ref=1 / me_range=16 / chroma_me=1 / trellis=2 / 8x8dct=0 / cqm=0 / deadzone=21,11 / fast_pskip=1 / chroma_qp_offset=-2 / threads=6 / lookahead_threads=1 / sliced_threads=0 / nr=0 / decimate=1 / interlaced=0 / bluray_compat=0 / constrained_intra=0 / bframes=3 / b_pyramid=2 / b_adapt=2 / b_bias=0 / direct=3 / weightb=1 / open_gop=0 / weightp=2 / keyint=300 / keyint_min=30 / scenecut=40 / intra_refresh=0 / rc_lookahead=60 / rc=2pass / mbtree=1 / bitrate=512 / ratetol=1.0 / qcomp=0.60 / qpmin=0 / qpmax=69 / qpstep=4 / cplxblur=20.0 / qblur=0.5 / vbv_maxrate=20000 / vbv_bufsize=25000 / nal_hrd=none / filler=0 / ip_ratio=1.40 / aq=1:1.00
Дата кодирования : UTC 2018-10-09 20:52:14
Дата пометки : UTC 2018-10-09 20:52:14
Цветовой диапазон : Limited
Основные цвета : BT.709
Характеристики трансфера : BT.709
Коэффициенты матрицы : BT.709
Codec configuration box : avcC
Аудио
Идентификатор : 2
Формат : AAC LC
Формат/Информация : Advanced Audio Codec Low Complexity
Идентификатор кодека : mp4a-40-2
Продолжительность : 10 м. 4 с.
Вид битрейта : Переменный
Битрейт : 96,0 Кбит/сек
Каналы : 2 канала
Channel layout : L R
Частота : 44,1 КГц
Частота кадров : 43,066 кадра/сек (1024 SPF)
Метод сжатия : С потерями
Размер потока : 6,94 Мбайт (16%)
Заголовок : Stereo / Stereo
Язык : English
Default : Да
AlternateGroup/String : 1
Дата кодирования : UTC 2018-10-09 20:52:14
Дата пометки : UTC 2018-10-09 20:52:14

Дополнительная информация:

В раздаче имеются архивы! В них содержится исходники.
Скриншоты:
Показать сообщения:    

Текущее время: 23-Мар 14:31

Часовой пояс: UTC + 3


Вы не можете начинать темы
Вы не можете отвечать на сообщения
Вы не можете редактировать свои сообщения
Вы не можете удалять свои сообщения
Вы не можете голосовать в опросах
Вы не можете прикреплять файлы к сообщениям
Вы не можете скачивать файлы

!ВНИМАНИЕ!
Сайт не предоставляет электронные версии произведений, а занимается лишь коллекционированием и каталогизацией ссылок, присылаемых и публикуемых на форуме нашими читателями. Если вы являетесь правообладателем какого-либо представленного материала и не желаете, чтобы ссылка на него находилась в нашем каталоге, свяжитесь с нами, и мы незамедлительно удалим ее. Файлы для обмена на трекере предоставлены пользователями сайта, и администрация не несет ответственности за их содержание. Просьба не заливать файлы, защищенные авторскими правами, а также файлы нелегального содержания!