[Цитировать]

[4K, UHD / BDRip] Белоснежка и охотник (Расширенная версия) / Snow White and the Huntsman (Extended) / 2012 (Седрик Николя-Троян) (2160p) Год выпуска: 2012
Жанр: Фэнтези, боевик, драма, приключения
Выпущено: США
Режиссер: Руперт Сандерс
Продолжительность: 02:11:33
Перевод: Дублированный, авторский
Субтитры: Русские, английские, украинские
Возрастные ограничения 12+
В ролях: Кристен Стюарт, Крис Хемсворт, Шарлиз Терон, Сэм Клафлин, Сэм Спруэлл, Иэн МакШейн, Боб Хоскинс, Рэй Уинстон, Ник Фрост, Эдди Марсан, Тоби Джонс, Джонни Харрис, Брин Глисон, Винсент Риган, Ной Хантли, Либерти Росс, Кристофер Оби, Лили Коул, Рэйчел Стирлинг, Хэтти Готобед, Рэффи Кэссиди, Ксавьер Аткинс, Иззи Мейкл-Смолл, Анастасия Хилл, Эллиот Рив, Марк Уингетт, Джейми Блэкли, Дэйв Леджено, Мэтт Берри, Грег Хикс, Питер Фердинандо, Эндрю Хоули, Джои Анса, Грегор Трутер, Том Маллион, Адамс Каллен, Крэйг Иззард, Джонс Ли, Эдвардс Льюис, Эдд Осмонд, Джо Осмонд, Карен Андерсон, Ласко Аткинс, Дункан Кэйси, Крэйг Гарнер, Мэ
О фильме: Тьма приближается. Она прячется в лесах, спускается с гор, застилает небо. Никто не укроется от магического зеркала Королевы, живущей в неприступном замке, охраняемом бесчисленной армией. Но над Белоснежкой злые чары не властны. И тогда Королева отправляет Охотника, чтобы он принес ей сердце соперницы. Но очарованный Белоснежкой, он встает на ее сторону. Грядет великая битва. Лишь одна будет править.
сэмпл
Белоснежка и охотник 2 | HD трейлер на русском
Техданные
Качество: BDRip (2160p)
Видео: MPEG-4 AVC, 29700 Кбит/с, 3840x1632, 23.976 кадр/с
Аудио: Русский, украинский, английский (AC3, 6 ch, 448 Кбит/с)
Релиз
Мастер 5
Источник: http://torrnada.com/viewtopic.php?t=197413 59.33 GB _Converted из 10-битного HDR в 8 бит SDR
Профиль формата: [email protected]_8 ми-битный SDR
Аудио #1: 48 kHz, AC3 Dolby Digital, 3/2 (L,C,R,l,r) + LFE ch, 448kbps | Дублированный (Blu-ray EUR)
Аудио #2: 48 kHz, AC3 Dolby Digital, 3/2 (L,C,R,l,r) + LFE ch, 448kbps | Профессиональный (одноголосый, закадровый) - (Юрий Сербин)
Аудио #3: 48 kHz, AC3 Dolby Digital, 3/2 (L,C,R,l,r) + LFE ch, 448kbps | Профессиональный (одноголосый, закадровый) - (Василий Горчаков)
Аудио #4: 48 kHz, AC3 Dolby Digital, 3/2 (L,C,R,l,r) + LFE ch, 448kbps | Дублированный украинский + вставки оригинала на расширенные места
Аудио #5: 48 kHz, AC3 Dolby Digital, 3/2 (L,C,R,l,r) + LFE ch, 448kbps | Оригинальная английская дорожка
Субтитры: Русские, Украинские (форсированные на расширенные места), Английские

MI

Общее
Уникальный идентификатор : 186287542390906256848109857366237219146 (0x8C25ACF52673F27BB65C39391FC7894A)
Полное имя : H:\Snow.White.and.the.Huntsman.2012.EXTENDED.2160p.BluRay.SDR.8bit.UHD.4K.BDRip.x264.Master5 .mkv
Формат : Matroska
Версия формата : Version 4 / Version 2
Размер файла : 29,4 Гбайт
Продолжительность : 2 ч. 11 м.
Общий поток : 32,0 Мбит/сек
Название фильма : Snow.White.and.the.Huntsman.2012.EXTENDED.2160p.BluRay.SDR.8bit.UHD.4K.BDRip.x264.Master5
Дата кодирования : UTC 2018-01-13 11:47:03
Программа кодирования : mkvmerge v8.1.0 ('Psychedelic Postcard') 32bit
Библиотека кодирования : libebml v1.3.1 + libmatroska v1.4.2
Обложка : Yes
Attachments : cover.jpg / cover.jpg
Видео
Идентификатор : 1
Формат : AVC
Формат/Информация : Advanced Video Codec
Профиль формата : [email protected]
Параметр CABAC формата : Да
Параметр ReFrames формата : 5 кадров
Идентификатор кодека : V_MPEG4/ISO/AVC
Продолжительность : 2 ч. 11 м.
Битрейт : 29,7 Мбит/сек
Ширина : 3840 пикселей
Высота : 1632 пикселя
Соотношение сторон : 2,35:1
Режим частоты кадров : Постоянный
Частота кадров : 23,976 (24000/1001) кадра/сек
Цветовое пространство : YUV
Субдискретизация насыщенности : 4:2:0
Битовая глубина : 8 бит
Тип развёртки : Прогрессивная
Бит/(Пиксели*Кадры) : 0.198
Размер потока : 27,3 Гбайт (93%)
Заголовок : Snow.White.and.the.Huntsman.2012.EXTENDED.2160p.BluRay.SDR.8bit.UHD.4K.BDRip.x264.Master5
Библиотека кодирования : x264 core 148 r2748 97eaef2
Настройки программы : cabac=1 / ref=5 / deblock=1:-1:-1 / analyse=0x3:0x113 / me=umh / subme=10 / psy=1 / psy_rd=1.00:0.15 / mixed_ref=1 / me_range=48 / chroma_me=1 / trellis=2 / 8x8dct=1 / cqm=0 / deadzone=21,11 / fast_pskip=1 / chroma_qp_offset=-3 / threads=51 / lookahead_threads=4 / sliced_threads=0 / nr=0 / decimate=0 / interlaced=0 / bluray_compat=0 / constrained_intra=0 / bframes=3 / b_pyramid=2 / b_adapt=2 / b_bias=0 / direct=3 / weightb=1 / open_gop=0 / weightp=2 / keyint=250 / keyint_min=23 / scenecut=40 / intra_refresh=0 / rc_lookahead=50 / rc=crf / mbtree=1 / crf=18.0 / qcomp=0.60 / qpmin=0 / qpmax=69 / qpstep=4 / ip_ratio=1.40 / aq=1:1.00
Default : Да
Forced : Нет
Аудио #1
Идентификатор : 2
Формат : AC-3
Формат/Информация : Audio Coding 3
Расширение режима : CM (complete main)
Параметр Endianness формата : Big
Идентификатор кодека : A_AC3
Продолжительность : 2 ч. 11 м.
Вид битрейта : Постоянный
Битрейт : 448 Кбит/сек
Каналы : 6 каналов
Расположение каналов : Front: L C R, Side: L R, LFE
Частота : 48,0 КГц
Частота кадров : 31,250 кадров/сек (1536 spf)
Метод сжатия : С потерями
Размер потока : 422 Мбайт (1%)
Заголовок : Rus_Blu-ray EUR
Язык : Russian
Default : Да
Forced : Нет
Аудио #2
Идентификатор : 3
Формат : AC-3
Формат/Информация : Audio Coding 3
Расширение режима : CM (complete main)
Параметр Endianness формата : Big
Идентификатор кодека : A_AC3
Продолжительность : 2 ч. 11 м.
Вид битрейта : Постоянный
Битрейт : 448 Кбит/сек
Каналы : 6 каналов
Расположение каналов : Front: L C R, Side: L R, LFE
Частота : 48,0 КГц
Частота кадров : 31,250 кадров/сек (1536 spf)
Метод сжатия : С потерями
Размер потока : 422 Мбайт (1%)
Заголовок : AVO.SERBIN
Язык : Russian
Default : Нет
Forced : Нет
Аудио #3
Идентификатор : 4
Формат : AC-3
Формат/Информация : Audio Coding 3
Расширение режима : CM (complete main)
Параметр Endianness формата : Big
Идентификатор кодека : A_AC3
Продолжительность : 2 ч. 11 м.
Вид битрейта : Постоянный
Битрейт : 448 Кбит/сек
Каналы : 6 каналов
Расположение каналов : Front: L C R, Side: L R, LFE
Частота : 48,0 КГц
Частота кадров : 31,250 кадров/сек (1536 spf)
Метод сжатия : С потерями
Размер потока : 422 Мбайт (1%)
Заголовок : AVO.GORCHAKOV
Язык : Russian
Default : Нет
Forced : Нет
Аудио #4
Идентификатор : 5
Формат : AC-3
Формат/Информация : Audio Coding 3
Расширение режима : CM (complete main)
Параметр Endianness формата : Big
Идентификатор кодека : A_AC3
Продолжительность : 2 ч. 11 м.
Вид битрейта : Постоянный
Битрейт : 448 Кбит/сек
Каналы : 6 каналов
Расположение каналов : Front: L C R, Side: L R, LFE
Частота : 48,0 КГц
Частота кадров : 31,250 кадров/сек (1536 spf)
Метод сжатия : С потерями
Размер потока : 422 Мбайт (1%)
Заголовок : Ukrainian
Язык : Ukrainian
Default : Нет
Forced : Нет
Аудио #5
Идентификатор : 6
Формат : AC-3
Формат/Информация : Audio Coding 3
Расширение режима : CM (complete main)
Параметр Endianness формата : Big
Идентификатор кодека : A_AC3
Продолжительность : 2 ч. 11 м.
Вид битрейта : Постоянный
Битрейт : 448 Кбит/сек
Каналы : 6 каналов
Расположение каналов : Front: L C R, Side: L R, LFE
Частота : 48,0 КГц
Частота кадров : 31,250 кадров/сек (1536 spf)
Метод сжатия : С потерями
Размер потока : 422 Мбайт (1%)
Заголовок : Eng
Язык : English
Default : Нет
Forced : Нет
Текст #1
Идентификатор : 7
Формат : UTF-8
Идентификатор кодека : S_TEXT/UTF8
Идентификатор кодека/Информация : UTF-8 Plain Text
Продолжительность : 2 ч. 0 м.
Битрейт : 44 бит/сек
Count of elements : 886
Размер потока : 39,2 Кбайт (0%)
Заголовок : Rus
Язык : Russian
Default : Нет
Forced : Нет
Текст #2
Идентификатор : 8
Формат : UTF-8
Идентификатор кодека : S_TEXT/UTF8
Идентификатор кодека/Информация : UTF-8 Plain Text
Продолжительность : 1 ч. 49 м.
Битрейт : 2 бит/сек
Count of elements : 41
Размер потока : 1,91 Кбайт (0%)
Заголовок : Ukrainian forced
Язык : Ukrainian
Default : Нет
Forced : Да
Текст #3
Идентификатор : 9
Формат : UTF-8
Идентификатор кодека : S_TEXT/UTF8
Идентификатор кодека/Информация : UTF-8 Plain Text
Продолжительность : 1 ч. 59 м.
Битрейт : 26 бит/сек
Count of elements : 917
Размер потока : 23,5 Кбайт (0%)
Заголовок : Eng
Язык : English
Default : Нет
Forced : Нет
Меню
00:00:00.000 : en:Chapter 1
00:05:05.054 : en:Chapter 2
00:10:26.792 : en:Chapter 3
00:19:48.854 : en:Chapter 4
00:27:46.456 : en:Chapter 5
00:32:40.458 : en:Chapter 6
00:38:04.490 : en:Chapter 7
00:44:02.097 : en:Chapter 8
00:51:08.648 : en:Chapter 9
00:58:17.869 : en:Chapter 10
01:02:08.558 : en:Chapter 11
01:08:57.967 : en:Chapter 12
01:13:36.537 : en:Chapter 13
01:16:59.072 : en:Chapter 14
01:26:57.003 : en:Chapter 15
01:36:30.993 : en:Chapter 16
01:43:37.794 : en:Chapter 17
01:49:51.459 : en:Chapter 18
01:53:44.734 : en:Chapter 19
02:01:50.094 : en:Chapter 20

Скриншоты

разница от этих раздач + ссылка в пункте источнике
http://torrnada.com/viewtopic.php?t=191049
http://torrnada.com/viewtopic.php?t=191051
http://torrnada.com/viewtopic.php?t=191052 23.79 GB
качеством, размером и тех данными.


Показать сообщения:    

Текущее время: 19-Янв 02:55

Часовой пояс: UTC + 3


Вы не можете начинать темы
Вы не можете отвечать на сообщения
Вы не можете редактировать свои сообщения
Вы не можете удалять свои сообщения
Вы не можете голосовать в опросах
Вы не можете прикреплять файлы к сообщениям
Вы не можете скачивать файлы


!ВНИМАНИЕ!
Сайт не предоставляет электронные версии произведений, а занимается лишь коллекционированием и каталогизацией ссылок, присылаемых и публикуемых на форуме нашими читателями. Если вы являетесь правообладателем какого-либо представленного материала и не желаете, чтобы ссылка на него находилась в нашем каталоге, свяжитесь с нами, и мы незамедлительно удалим ее. Файлы для обмена на трекере предоставлены пользователями сайта, и администрация не несет ответственности за их содержание. Просьба не заливать файлы, защищенные авторскими правами, а также файлы нелегального содержания!

Яндекс.Метрика