[Цитировать]

[4K UHD / Blu-Ray Remux] Кинг Конг (Расширенная Версия) / King Kong / (2005) (Питер Джексон) (2160p) Год выпуска: 2005
Жанр: Приключения, боевик, драма, мелодрама, ремейк, динозавры
Выпущено: США, Германия, Новая Зеландия
Режиссер: Питер Джексон
Продолжительность: 03:20:09
Перевод: Дублированный, профессиональный многоголосый, профессиональный двухголосый, авторский
Субтитры: Русские, английские, украинские
возраст 12 +
В ролях: Наоми Уоттс, Джек Блэк, Эдриан Броуди, Томас Кречманн, Колин Хэнкс, Энди Серкис, Ивэн Декстер Парк, Джейми Белл, Лобо Чан, Джон Саммер, Крэйг Холл, Кайл Чандлер, Билл Джонсон, Марк Хэдлоу, Джеральдин Брофи, Дэвид Дэнис, Дэвид Питту, Пип Мушин, Джим Нобелок, Рик Херберт, Ли Донахью
О фильме: В 1930-м году съемочная группа под предводительством режиссера-неудачника Карла Дэнхэма отправляется на загадочный Остров Черепа неподалеку от Суматры, чтобы изучать легенды о гигантской горилле по кличке Конг. По прибытии на место они обнаруживают, что Кинг Конг и правда существует. Горилла живет в самой чаще непроходимых джунглей, где помимо него, спрятанные от всего мира, обитают многие создания из доисторических времен. Исследователи оказываются между двух огней - с одной стороны Кинг Конг, а с другой - его враги динозавры...
Кинг Конг (2005) - Русский Дублированный Трейлер-2
Техданные
Качество
: Blu-Ray Remux (2160p)
Видео: HEVC, 46200 Кбит/с, 3840x2160, 23.976 кадр/с
Аудио: Русский (DTS, 6 ch, 768 Кбит/с), (DTS-HD M, 8 ch, ~ 5445 Кбит/с), украинский (AC3, 2 ch, 128 Кбит/с), английский (DTS-HD M, 8 ch, 7413 Кбит/с)

Релиз

Релиз от: BlueBird
Качество: UHD BDRemux (HDR)
Перевод: Дублированный (Лицензия BD CEE) со вставками П.Гланца и "Киномании" на расширенные места, Профессиональный (многоголосый, закадровый), Авторский (одноголосый, закадровый)
Субтитры: Русские (полные, форс.), украинские (форс. на непереведенные места укр. аудио), английские
Видео: HEVC/H.265
Аудио 1: DTS, 6 ch, 768 kbps - Русский, Дубляж (CEE) со вставками П.Гланца и "Киномании"
Аудио 2: DTS, 6 ch, 768 kbps - Русский, Киномания (MVO)
Аудио 3: DTS-HD MA, 8 ch, 5446 kbps - Русский, П.Гланц и И.Королёва (MVO)
Аудио 4: AC3, 2 ch, 192 kbps - Украинский, "Так Треба Продакшн" (MVO)
Аудио 5: DTS-HD MA, 8 ch, 5445 kbps - Русский, А.Гаврилов (AVO)
Аудио 6: DTS-HD MA, 8 ch, 5447 kbps - Русский, В.Королёв (AVO)
Аудио 7: DTS:X / MA, 8 ch, 7413 kbps - Английский, Оригинальны

MI

General
Unique ID : 200814140530280997588557335049066858176 (0x9713658AE0DB9E09BC00F1EE1B5146C0)
Complete name : D:\KING_KONG_DC_BD_UHD_HDR_REMUX-BLUEBIRD.mkv
Format : Matroska
Format version : Version 4 / Version 2
File size : 100 GiB
Duration : 3 h 20 min
Overall bit rate : 71.7 Mb/s
Movie name : KING_KONG_BD_UHD_HDR_REMUX-BLUEBIRD
Encoded date : UTC 2017-11-10 00:06:45
Writing application : mkvmerge v16.0.0 ('Protest') 64-bit
Writing library : libebml v1.3.5 + libmatroska v1.4.8
Cover : Yes
Attachments : cover3.png
Video
ID : 1
Format : HEVC
Format/Info : High Efficiency Video Coding
Format profile : Main [email protected]@High
Codec ID : V_MPEGH/ISO/HEVC
Duration : 3 h 20 min
Bit rate : 46.2 Mb/s
Width : 3 840 pixels
Height : 2 160 pixels
Display aspect ratio : 16:9
Frame rate mode : Constant
Frame rate : 23.976 (24000/1001) FPS
Color space : YUV
Chroma subsampling : 4:2:0 (Type 2)
Bit depth : 10 bits
Bits/(Pixel*Frame) : 0.232
Stream size : 64.5 GiB (64%)
Title : KING_KONG_BD_UHD_HDR_REMUX-BLUEBIRD
Writing library : ATEME Titan File 3.7.9 (4.7.9.0)
Default : Yes
Forced : No
Color range : Limited
Color primaries : BT.2020
Transfer characteristics : PQ
Matrix coefficients : BT.2020 non-constant
Mastering display color pri : Display P3
Mastering display luminance : min: 0.0050 cd/m2, max: 1000 cd/m2
Maximum Content Light Level : 1000 cd/m2
Maximum Frame-Average Light : 96 cd/m2
Audio #1
ID : 2
Format : DTS
Format/Info : Digital Theater Systems
Codec ID : A_DTS
Duration : 3 h 20 min
Bit rate mode : Constant
Bit rate : 755 kb/s
Channel(s) : 6 channels
Channel positions : Front: L C R, Side: L R, LFE
Sampling rate : 48.0 kHz
Frame rate : 93.750 FPS (512 SPF)
Bit depth : 24 bits
Compression mode : Lossy
Stream size : 1.05 GiB (1%)
Title : [DUB] DTS 5.1 @ 768 kbps
Language : Russian
Default : Yes
Forced : No
Audio #2
ID : 3
Format : DTS
Format/Info : Digital Theater Systems
Codec ID : A_DTS
Duration : 3 h 20 min
Bit rate mode : Constant
Bit rate : 755 kb/s
Channel(s) : 6 channels
Channel positions : Front: L C R, Side: L R, LFE
Sampling rate : 48.0 kHz
Frame rate : 93.750 FPS (512 SPF)
Bit depth : 24 bits
Compression mode : Lossy
Stream size : 1.05 GiB (1%)
Title : [MVO] DTS 5.1 @ 768 kbps (Kinomania)
Language : Russian
Default : No
Forced : No
Audio #3
ID : 4
Format : DTS
Format/Info : Digital Theater Systems
Format profile : MA / Core
Codec ID : A_DTS
Duration : 3 h 20 min
Bit rate mode : Variable / Constant
Bit rate : 5 446 kb/s / 1 509 kb/s
Channel(s) : 8 channels / 6 channels
Channel positions : Front: L C R, Side: L R, Back: L R, LFE / Front: L C R, Side: L R, LFE
Sampling rate : 48.0 kHz
Frame rate : 93.750 FPS (512 SPF)
Bit depth : 24 bits
Compression mode : Lossless / Lossy
Stream size : 7.61 GiB (8%)
Title : [MVO] DTS-HD MA 7.1 @ 5447 kbps (Glanz)
Language : Russian
Default : No
Forced : No
Audio #4
ID : 5
Format : AC-3
Format/Info : Audio Coding 3
Codec ID : A_AC3
Duration : 3 h 20 min
Bit rate mode : Constant
Bit rate : 192 kb/s
Channel(s) : 2 channels
Channel positions : Front: L R
Sampling rate : 48.0 kHz
Frame rate : 31.250 FPS (1536 SPF)
Bit depth : 16 bits
Compression mode : Lossy
Stream size : 275 MiB (0%)
Title : [MVO] DD 2.0 @ 192 kbps (Tak Treba Production)
Language : Ukrainian
Service kind : Complete Main
Default : No
Forced : No
Audio #5
ID : 6
Format : DTS
Format/Info : Digital Theater Systems
Format profile : MA / Core
Codec ID : A_DTS
Duration : 3 h 20 min
Bit rate mode : Variable / Constant
Bit rate : 5 445 kb/s / 1 509 kb/s
Channel(s) : 8 channels / 6 channels
Channel positions : Front: L C R, Side: L R, Back: L R, LFE / Front: L C R, Side: L R, LFE
Sampling rate : 48.0 kHz
Frame rate : 93.750 FPS (512 SPF)
Bit depth : 24 bits
Compression mode : Lossless / Lossy
Stream size : 7.61 GiB (8%)
Title : [VO] DTS-HD MA 7.1 @ 5446 kbps (A. Gavrilov)
Language : Russian
Default : No
Forced : No
Audio #6
ID : 7
Format : DTS
Format/Info : Digital Theater Systems
Format profile : MA / Core
Codec ID : A_DTS
Duration : 3 h 20 min
Bit rate mode : Variable / Constant
Bit rate : 5 447 kb/s / 1 509 kb/s
Channel(s) : 8 channels / 6 channels
Channel positions : Front: L C R, Side: L R, Back: L R, LFE / Front: L C R, Side: L R, LFE
Sampling rate : 48.0 kHz
Frame rate : 93.750 FPS (512 SPF)
Bit depth : 24 bits
Compression mode : Lossless / Lossy
Stream size : 7.62 GiB (8%)
Title : [VO] DTS-HD MA 7.1 @ 5448 kbps (V. Korolev)
Language : Russian
Default : No
Forced : No
Audio #7
ID : 8
Format : DTS
Format/Info : Digital Theater Systems
Format profile : X / MA / Core
Codec ID : A_DTS
Duration : 3 h 20 min
Bit rate mode : Variable / Variable / Constant
Bit rate : 7 413 kb/s / 7 413 kb/s / 1 509 kb/s
Channel(s) : Object Based / 8 channels / 6 channels
Channel positions : Object Based / Front: L C R, Side: L R, Back: L R, LFE / Front: L C R, Side: L R, LFE
Sampling rate : / 48.0 kHz / 48.0 kHz
Frame rate : 93.750 FPS (512 SPF)
Bit depth : / 24 bits / 24 bits
Compression mode : / Lossless / Lossy
Stream size : 10.4 GiB (10%)
Title : [ORIGINAL] DTS:X 7.1 @ 7413 kbps
Language : English
Default : No
Forced : No
Text #1
ID : 9
Format : PGS
Codec ID : S_HDMV/PGS
Codec ID/Info : Picture based subtitle format used on BDs/HD-DVDs
Duration : 3 h 8 min
Bit rate : 24.9 kb/s
Count of elements : 2472
Stream size : 33.6 MiB (0%)
Title : Full-length
Language : Russian
Default : No
Forced : No
Text #2
ID : 10
Format : PGS
Codec ID : S_HDMV/PGS
Codec ID/Info : Picture based subtitle format used on BDs/HD-DVDs
Duration : 3 h 9 min
Bit rate : 21.8 kb/s
Count of elements : 3438
Stream size : 29.5 MiB (0%)
Title : Full-length
Language : English
Default : No
Forced : No
Text #3
ID : 11
Format : PGS
Codec ID : S_HDMV/PGS
Codec ID/Info : Picture based subtitle format used on BDs/HD-DVDs
Duration : 3 h 16 min
Bit rate : 635 b/s
Count of elements : 52
Stream size : 914 KiB (0%)
Title : Forced
Language : Russian
Default : Yes
Forced : Yes
Text #4
ID : 12
Format : PGS
Codec ID : S_HDMV/PGS
Codec ID/Info : Picture based subtitle format used on BDs/HD-DVDs
Duration : 1 h 38 min
Bit rate : 2 194 b/s
Count of elements : 136
Stream size : 1.55 MiB (0%)
Title : Forced (for untranslated cuts)
Language : Ukrainian
Default : No
Forced : No
Menu
00:00:00.000 : en:Chapter 1
00:03:01.848 : en:Chapter 2
00:04:19.842 : en:Chapter 3
00:06:42.985 : en:Chapter 4
00:10:28.711 : en:Chapter 5
00:12:32.251 : en:Chapter 6
00:14:17.439 : en:Chapter 7
00:17:39.933 : en:Chapter 8
00:20:24.890 : en:Chapter 9
00:24:12.325 : en:Chapter 10
00:25:54.678 : en:Chapter 11
00:26:12.404 : en:Chapter 12
00:27:59.678 : en:Chapter 13
00:30:28.576 : en:Chapter 14
00:31:06.489 : en:Chapter 15
00:33:06.401 : en:Chapter 16
00:34:13.551 : en:Chapter 17
00:36:54.921 : en:Chapter 18
00:39:44.715 : en:Chapter 19
00:41:06.547 : en:Chapter 20
00:42:30.756 : en:Chapter 21
00:43:44.913 : en:Chapter 22
00:52:19.219 : en:Chapter 23
00:55:48.970 : en:Chapter 24
01:02:06.305 : en:Chapter 25
01:07:31.839 : en:Chapter 26
01:12:38.520 : en:Chapter 27
01:14:13.699 : en:Chapter 28
01:16:57.988 : en:Chapter 29
01:20:22.526 : en:Chapter 30
01:22:41.206 : en:Chapter 31
01:29:19.562 : en:Chapter 32
01:30:15.618 : en:Chapter 33
01:32:08.856 : en:Chapter 34
01:38:54.386 : en:Chapter 35
01:44:43.151 : en:Chapter 36
01:46:16.995 : en:Chapter 37
01:50:01.052 : en:Chapter 38
02:01:40.292 : en:Chapter 39
02:09:07.698 : en:Chapter 40
02:13:18.031 : en:Chapter 41
02:15:50.517 : en:Chapter 42
02:21:35.069 : en:Chapter 43
02:30:15.548 : en:Chapter 44
02:32:10.746 : en:Chapter 45
02:34:01.190 : en:Chapter 46
02:43:13.825 : en:Chapter 47
02:47:49.601 : en:Chapter 48
02:52:22.915 : en:Chapter 49
02:54:04.308 : en:Chapter 50
02:56:23.030 : en:Chapter 51
03:03:56.525 : en:Chapter 52
03:10:35.090 : en:Chapter 53

Скриншоты

отличия от этих раздач
http://torrnada.com/viewtopic.php?t=194940
http://torrnada.com/viewtopic.php?t=194950
качеством, размером и тех данными


Показать сообщения:    

Текущее время: 18-Янв 02:44

Часовой пояс: UTC + 3


Вы не можете начинать темы
Вы не можете отвечать на сообщения
Вы не можете редактировать свои сообщения
Вы не можете удалять свои сообщения
Вы не можете голосовать в опросах
Вы не можете прикреплять файлы к сообщениям
Вы не можете скачивать файлы


!ВНИМАНИЕ!
Сайт не предоставляет электронные версии произведений, а занимается лишь коллекционированием и каталогизацией ссылок, присылаемых и публикуемых на форуме нашими читателями. Если вы являетесь правообладателем какого-либо представленного материала и не желаете, чтобы ссылка на него находилась в нашем каталоге, свяжитесь с нами, и мы незамедлительно удалим ее. Файлы для обмена на трекере предоставлены пользователями сайта, и администрация не несет ответственности за их содержание. Просьба не заливать файлы, защищенные авторскими правами, а также файлы нелегального содержания!

Яндекс.Метрика