[Цитировать]

VA - Казачьи песни:Сборник лучших песен (2002) - Год: 2002
Жанр: Шансон
Издание: Классик Компания CC CD 036/02
Источник (релизер): eloychik ®
Продолжительность: 01:02:19
Кодек: FLAC
Битрейт: Lossless
Тип рипа: image + .cue

01. Бравый атаман (гр.Белый день)
02. Казачья (В.Черняков)
03. Дон (А.Дюмин)
04. Полонянка (С.Любавин)
05. Конь вороной (И.Кучин)
06. Дед Щукарь (В.Цыганова)
07. Две голубки (М.Винокуров)
08. Каторжанская цыганочка (М.Круг)
09. Женушка (Трофим)
10. Советы отца (О.Ветер)
11. Казачок (С.Любавин)

Продолжение треклиста:

12. Русская зима (А.Беркут)
13. Свобода (М.Круг)
14. Царь-Батюшка (И.Кучин)
15. Катюша (В.Цыганова)
16. Когда окончится война (Трофим)

Отчёт ЕАС:

Exact Audio Copy V1.3 from 2. September 2016
Отчёт EAC об извлечении, выполненном 12. января 2018, 19:31
Various Artists / Казачьи песни:Сборник лучших песен
Дисковод: ASUS    DRW-24D5MT   Adapter: 1  ID: 0
Режим чтения                 : Достоверность
Использование точного потока : Да
Отключение кэша аудио        : Да
Использование указателей C2  : Нет
Коррекция смещения при чтении                     : 6
Способность читать области Lead-in и Lead-out     : Нет
Заполнение пропущенных сэмплов тишиной            : Да
Удаление блоков с тишиной в начале и конце        : Нет
При вычислениях CRC использовались нулевые сэмплы : Да
Интерфейс                                         : Встроенный Win32-интерфейс для Win NT/2000
Выходной формат          : Пользовательский кодировщик
Выбранный битрейт        : 128 kBit/s
Качество                 : Высокий
Добавление ID3-тега      : Нет
Утилита сжатия           : C:\Program Files (x86)\Exact Audio Copy\Flac\flac.exe
Дополнительные параметры : -V -8 -T "Date=%year%" -T "Genre=%genre%" %source%
TOC извлечённого CD
     Трек |   Старт  | Длительность | Начальный сектор | Конечный сектор
    ---------------------------------------------------------------------
       1  |  0:00.00 |    3:17.68   |           0      |      14842
       2  |  3:17.68 |    3:58.36   |       14843      |      32728
       3  |  7:16.29 |    2:23.15   |       32729      |      43468
       4  |  9:39.44 |    3:37.40   |       43469      |      59783
       5  | 13:17.09 |    3:35.14   |       59784      |      75922
       6  | 16:52.23 |    3:58.61   |       75923      |      93833
       7  | 20:51.09 |    4:23.00   |       93834      |     113558
       8  | 25:14.09 |    5:50.60   |      113559      |     139868
       9  | 31:04.69 |    4:45.45   |      139869      |     161288
      10  | 35:50.39 |    4:28.50   |      161289      |     181438
      11  | 40:19.14 |    3:56.53   |      181439      |     199191
      12  | 44:15.67 |    3:23.37   |      199192      |     214453
      13  | 47:39.29 |    3:27.13   |      214454      |     229991
      14  | 51:06.42 |    3:58.13   |      229992      |     247854
      15  | 55:04.55 |    2:12.24   |      247855      |     257778
      16  | 57:17.04 |    5:01.18   |      257779      |     280371
Характеристики диапазона извлечения и сообщения об ошибках
Выбранный диапазон
     Имя файла E:\Раздачи\TORRNADA-eloychik ®\Various Artists - Казачьи песни-Сборник лучших песен [torrnada.NAME]\Various Artists - Казачьи песни-Сборник лучших песен.wav
     Пиковый уровень 100.0 %
     Скорость извлечения 1.9 X
     Качество диапазона 100.0 %
     CRC теста C7D36A67
     CRC копии C7D36A67
     Копирование... OK
Ошибок не произошло
AccurateRip: сводка
Трек  1  отсутствует в базе данных
Трек  2  отсутствует в базе данных
Трек  3  отсутствует в базе данных
Трек  4  отсутствует в базе данных
Трек  5  отсутствует в базе данных
Трек  6  отсутствует в базе данных
Трек  7  отсутствует в базе данных
Трек  8  отсутствует в базе данных
Трек  9  отсутствует в базе данных
Трек 10  отсутствует в базе данных
Трек 11  отсутствует в базе данных
Трек 12  отсутствует в базе данных
Трек 13  отсутствует в базе данных
Трек 14  отсутствует в базе данных
Трек 15  отсутствует в базе данных
Трек 16  отсутствует в базе данных
Ни одного трека нет в базе AccurateRip
Конец отчёта
==== Контрольная сумма отчёта F1F4856516461B7D51BCC01BCFA8E252B8E7EB075D9A914C797F70B1DC42F6CA ====

Cue Sheet (.cue):

REM GENRE Chanson
REM DATE 2002
REM DISCID E60E9A10
REM COMMENT "ExactAudioCopy v1.3"
PERFORMER "Various Artists"
TITLE "Казачьи песни:Сборник лучших песен"
REM COMPOSER ""
FILE "Various Artists - Казачьи песни-Сборник лучших песен.flac" WAVE
  TRACK 01 AUDIO
    TITLE "Бравый атаман"
    PERFORMER "Various Artists"
    REM COMPOSER ""
    INDEX 01 00:00:00
  TRACK 02 AUDIO
    TITLE "Казачья"
    PERFORMER "Various Artists"
    REM COMPOSER ""
    INDEX 00 03:15:68
    INDEX 01 03:17:68
  TRACK 03 AUDIO
    TITLE "Дон"
    PERFORMER "Various Artists"
    REM COMPOSER ""
    INDEX 00 07:14:29
    INDEX 01 07:16:29
  TRACK 04 AUDIO
    TITLE "Полонянка"
    PERFORMER "Various Artists"
    REM COMPOSER ""
    INDEX 00 09:37:44
    INDEX 01 09:39:44
  TRACK 05 AUDIO
    TITLE "Конь вороной"
    PERFORMER "Various Artists"
    REM COMPOSER ""
    INDEX 00 13:15:09
    INDEX 01 13:17:09
  TRACK 06 AUDIO
    TITLE "Дед Щукарь"
    PERFORMER "Various Artists"
    REM COMPOSER ""
    INDEX 00 16:50:23
    INDEX 01 16:52:23
  TRACK 07 AUDIO
    TITLE "Две голубки"
    PERFORMER "Various Artists"
    REM COMPOSER ""
    INDEX 00 20:49:09
    INDEX 01 20:51:09
  TRACK 08 AUDIO
    TITLE "Каторжанская цыганочка"
    PERFORMER "Various Artists"
    REM COMPOSER ""
    INDEX 00 25:12:09
    INDEX 01 25:14:09
  TRACK 09 AUDIO
    TITLE "Женушка"
    PERFORMER "Various Artists"
    REM COMPOSER ""
    INDEX 00 31:02:69
    INDEX 01 31:04:69
  TRACK 10 AUDIO
    TITLE "Советы отца"
    PERFORMER "Various Artists"
    REM COMPOSER ""
    INDEX 00 35:48:39
    INDEX 01 35:50:39
  TRACK 11 AUDIO
    TITLE "Казачок"
    PERFORMER "Various Artists"
    REM COMPOSER ""
    INDEX 00 40:17:14
    INDEX 01 40:19:14
  TRACK 12 AUDIO
    TITLE "Русская зима"
    PERFORMER "Various Artists"
    REM COMPOSER ""
    INDEX 00 44:13:67
    INDEX 01 44:15:67
  TRACK 13 AUDIO
    TITLE "Свобода"
    PERFORMER "Various Artists"
    REM COMPOSER ""
    INDEX 00 47:37:29
    INDEX 01 47:39:29
  TRACK 14 AUDIO
    TITLE "Царь Батюшка"
    PERFORMER "Various Artists"
    REM COMPOSER ""
    INDEX 00 51:04:42
    INDEX 01 51:06:42
  TRACK 15 AUDIO
    TITLE "Катюша"
    PERFORMER "Various Artists"
    REM COMPOSER ""
    INDEX 00 55:02:55
    INDEX 01 55:04:55
  TRACK 16 AUDIO
    TITLE "Когда окончится война"
    PERFORMER "Various Artists"
    REM COMPOSER ""
    INDEX 00 57:15:04
    INDEX 01 57:17:04

Отчёт auCDtect Task manager:

-----------------------
DON'T MODIFY THIS FILE
-----------------------
PERFORMER: auCDtect Task Manager, ver. 1.6.0 RC1 build 1.6.0.1
Copyright (c) 2008-2010 y-soft. All rights reserved
http://y-soft.org
ANALYZER: auCDtect: CD records authenticity detector, version 0.8.2
Copyright (c) 2004 Oleg Berngardt. All rights reserved.
Copyright (c) 2004 Alexander Djourik. All rights reserved.
FILE: Various Artists - Казачьи песни-Сборник лучших песен.flac
  Size: 438887060 Hash: 1012057DDB8CA2542DB363F5E3C66487 Accuracy: -m0
  Conclusion: CDDA 100%
  Signature: F81CC8C463472BA800C724E275CDEB201C404BA4
[torrnada.com].t197433.torrent 
Торрент: Зарегистрирован   [ 2018-01-13 22:06 ] · D7E04096BB151E9D40254FB147ED9F07C8461EED

Скачать .torrent

Скачать

17 KB

Статус: проверено
Скачан: 49 раз
Размер: 422 MB
Оценка:  5 (Голосов: 7) Ваша оценка: 5
Поблагодарили: 10  Спасибо   (список)
Поделится:
Правила


Показать сообщения:    

Текущее время: 19-Янв 04:38

Часовой пояс: UTC + 3


Вы не можете начинать темы
Вы не можете отвечать на сообщения
Вы не можете редактировать свои сообщения
Вы не можете удалять свои сообщения
Вы не можете голосовать в опросах
Вы не можете прикреплять файлы к сообщениям
Вы можете скачивать файлы


!ВНИМАНИЕ!
Сайт не предоставляет электронные версии произведений, а занимается лишь коллекционированием и каталогизацией ссылок, присылаемых и публикуемых на форуме нашими читателями. Если вы являетесь правообладателем какого-либо представленного материала и не желаете, чтобы ссылка на него находилась в нашем каталоге, свяжитесь с нами, и мы незамедлительно удалим ее. Файлы для обмена на трекере предоставлены пользователями сайта, и администрация не несет ответственности за их содержание. Просьба не заливать файлы, защищенные авторскими правами, а также файлы нелегального содержания!

Яндекс.Метрика