[Цитировать]

[4K, UHD / BDRip] Мумия: Гробница Императора Драконов / The Mummy: Tomb of the Dragon Emperor / (2008) (Роб Коэн)(2160p) Год выпуска: 2008
Жанр: Фэнтези, боевик, триллер, приключения
Выпущено: США, Китай, Германия, Канада
Режиссер: Роб Коэн
Возрастное ограничение 12+
Продолжительность: 01:51:40
Перевод: Дублированный, авторский
Субтитры: Русские, английские
В ролях: Джет Ли, Брендан Фрейзер, Мария Белло, Джон Ханна, Мишель Йео, Люк Форд, Изабелла Люн, Энтони Вонг Чау-Санг, Расселл Вонг, Лайам Каннингэм
О фильме: Заколдованный волшебницей, безжалостный китайский император-дракон должен провести вечность в забвении. Его 10 000 воинов превратились в терракотовых воинов. Однако когда искатель приключений Алекс О`Коннелл случайно пробуждает властителя от вечной спячки, он вынужден искать помощи у единственных людей, которые знают, как справиться с воскресшими мертвецами: у своих родителей.Монарх возвращается к жизни, и наши герои понимают, что его сила за эту тысячу лет только увеличилась. Мумия готова поднять всю Азию в борьбе за мировое господство… если О`Коннеллы ее не остановят.
сэмпл
Мумия: Гробница Императора Драконов (2008) – трейлер
Техданные
Качество
: BDRip (2160p)
Видео: MPEG-4 AVC, 30500 Кбит/с, 3840x1600, 23.976 кадр/с
Аудио: Русский, английский (AC3, 6 ch, 448 Кбит/с), украинский (AC3, 2 ch, 192 Кбит/с)
Релиз
Мастер 5
Источник: сжаый _Converted из 10-битного HDR в 8 бит SDR
Профиль формата: [email protected]_8 ми-битный SDR
Аудио #1: 48 kHz, AC3 Dolby Digital, 3/2 (L,C,R,l,r) + LFE ch, 448kbps | Профессиональный полное дублирование
Аудио #2: 48 kHz, AC3 Dolby Digital, 3/2 (L,C,R,l,r) + LFE ch, 448kbps | Профессиональный (одноголосый, закадровый) - (Королёв) |
Аудио #3: 48 kHz, AC3 Dolby Digital, 3/2 (L,C,R,l,r) + LFE ch, 448kbps | Профессиональный (одноголосый, закадровый) - (А. Гаврилов) |
Аудио #4: 48 kHz, AC3 Dolby Digital, 2/0 (L,C,R,l,r) + LFE ch, 192kbps | Профессиональный (многоголосый, закадровый) украинский |ТРК Украина|
Аудио #5: 48 kHz, AC3 Dolby Digital, 3/2 (L,C,R,l,r) + LFE ch, 448kbps | Оригинальная английская дорожка |
Субтитры: русские (полные, форсированные), английские (2 вида)

MI

Общее
Уникальный идентификатор : 184917659885476293284752897288181311939 (0x8B1DD8891904B6B3B9D7A397DA76E9C3)
Полное имя : H:\The.Mummy.Tomb.of.the.Dragon.Emperor.2008.2160p.BluRay.SDR.8bit.UHD.4K.BDRip.x264.Master5.mkv
Формат : Matroska
Версия формата : Version 4 / Version 2
Размер файла : 25,3 Гбайт
Продолжительность : 1 ч. 51 м.
Общий поток : 32,5 Мбит/сек
Название фильма : The.Mummy.Tomb.of.the.Dragon.Emperor.2008.2160p.BluRay.SDR.8bit.UHD.4K.BDRip.x264.Master5
Дата кодирования : UTC 2018-01-11 19:11:25
Программа кодирования : mkvmerge v8.1.0 ('Psychedelic Postcard') 32bit
Библиотека кодирования : libebml v1.3.1 + libmatroska v1.4.2
Обложка : Yes
Attachments : cover.jpg / small_cover_land.jpg / cover.jpg / cover_land.jpg / small_cover.jpg
Видео
Идентификатор : 1
Формат : AVC
Формат/Информация : Advanced Video Codec
Профиль формата : [email protected]
Параметр CABAC формата : Да
Параметр ReFrames формата : 5 кадров
Идентификатор кодека : V_MPEG4/ISO/AVC
Продолжительность : 1 ч. 51 м.
Битрейт : 30,5 Мбит/сек
Ширина : 3840 пикселей
Высота : 1600 пикселей
Соотношение сторон : 2,40:1
Режим частоты кадров : Постоянный
Частота кадров : 23,976 (24000/1001) кадра/сек
Цветовое пространство : YUV
Субдискретизация насыщенности : 4:2:0
Битовая глубина : 8 бит
Тип развёртки : Прогрессивная
Бит/(Пиксели*Кадры) : 0.207
Размер потока : 23,8 Гбайт (94%)
Заголовок : The.Mummy.Tomb.of.the.Dragon.Emperor.2008.2160p.BluRay.SDR.8bit.UHD.4K.BDRip.x264.Master5
Библиотека кодирования : x264 core 148 r2748 97eaef2
Настройки программы : cabac=1 / ref=5 / deblock=1:-1:-1 / analyse=0x3:0x113 / me=umh / subme=10 / psy=1 / psy_rd=1.00:0.15 / mixed_ref=1 / me_range=48 / chroma_me=1 / trellis=2 / 8x8dct=1 / cqm=0 / deadzone=21,11 / fast_pskip=1 / chroma_qp_offset=-3 / threads=50 / lookahead_threads=4 / sliced_threads=0 / nr=0 / decimate=0 / interlaced=0 / bluray_compat=0 / constrained_intra=0 / bframes=3 / b_pyramid=2 / b_adapt=2 / b_bias=0 / direct=3 / weightb=1 / open_gop=0 / weightp=2 / keyint=250 / keyint_min=23 / scenecut=40 / intra_refresh=0 / rc_lookahead=50 / rc=crf / mbtree=1 / crf=22.0 / qcomp=0.60 / qpmin=0 / qpmax=69 / qpstep=4 / ip_ratio=1.40 / aq=1:1.00
Язык : English
Default : Да
Forced : Нет
Аудио #1
Идентификатор : 2
Формат : AC-3
Формат/Информация : Audio Coding 3
Расширение режима : CM (complete main)
Параметр Endianness формата : Big
Идентификатор кодека : A_AC3
Продолжительность : 1 ч. 51 м.
Вид битрейта : Постоянный
Битрейт : 448 Кбит/сек
Каналы : 6 каналов
Расположение каналов : Front: L C R, Side: L R, LFE
Частота : 48,0 КГц
Частота кадров : 31,250 кадров/сек (1536 spf)
Метод сжатия : С потерями
Размер потока : 358 Мбайт (1%)
Заголовок : DUB
Язык : Russian
Default : Да
Forced : Нет
Аудио #2
Идентификатор : 3
Формат : AC-3
Формат/Информация : Audio Coding 3
Расширение режима : CM (complete main)
Параметр Endianness формата : Big
Идентификатор кодека : A_AC3
Продолжительность : 1 ч. 51 м.
Вид битрейта : Постоянный
Битрейт : 448 Кбит/сек
Каналы : 6 каналов
Расположение каналов : Front: L C R, Side: L R, LFE
Частота : 48,0 КГц
Частота кадров : 31,250 кадров/сек (1536 spf)
Метод сжатия : С потерями
Размер потока : 358 Мбайт (1%)
Заголовок : AVO.KOROLEV
Язык : Russian
Default : Нет
Forced : Нет
Аудио #3
Идентификатор : 4
Формат : AC-3
Формат/Информация : Audio Coding 3
Расширение режима : CM (complete main)
Параметр Endianness формата : Big
Идентификатор кодека : A_AC3
Продолжительность : 1 ч. 51 м.
Вид битрейта : Постоянный
Битрейт : 448 Кбит/сек
Каналы : 6 каналов
Расположение каналов : Front: L C R, Side: L R, LFE
Частота : 48,0 КГц
Частота кадров : 31,250 кадров/сек (1536 spf)
Метод сжатия : С потерями
Размер потока : 358 Мбайт (1%)
Заголовок : AVO.GAVRILOV
Язык : Russian
Default : Нет
Forced : Нет
Аудио #4
Идентификатор : 5
Формат : AC-3
Формат/Информация : Audio Coding 3
Расширение режима : CM (complete main)
Параметр Endianness формата : Big
Идентификатор кодека : A_AC3
Продолжительность : 1 ч. 51 м.
Вид битрейта : Постоянный
Битрейт : 192 Кбит/сек
Каналы : 2 канала
Расположение каналов : Front: L R
Частота : 48,0 КГц
Частота кадров : 31,250 кадров/сек (1536 spf)
Метод сжатия : С потерями
Размер потока : 153 Мбайт (1%)
Заголовок : TRK.UKRAINA
Язык : Ukrainian
Default : Нет
Forced : Нет
Аудио #5
Идентификатор : 6
Формат : AC-3
Формат/Информация : Audio Coding 3
Расширение режима : CM (complete main)
Параметр Endianness формата : Big
Идентификатор кодека : A_AC3
Продолжительность : 1 ч. 51 м.
Вид битрейта : Постоянный
Битрейт : 448 Кбит/сек
Каналы : 6 каналов
Расположение каналов : Front: L C R, Side: L R, LFE
Частота : 48,0 КГц
Частота кадров : 31,250 кадров/сек (1536 spf)
Метод сжатия : С потерями
Размер потока : 358 Мбайт (1%)
Язык : English
Default : Нет
Forced : Нет
Текст #1
Идентификатор : 7
Формат : UTF-8
Идентификатор кодека : S_TEXT/UTF8
Идентификатор кодека/Информация : UTF-8 Plain Text
Продолжительность : 1 ч. 38 м.
Битрейт : 8 бит/сек
Count of elements : 131
Размер потока : 6,02 Кбайт (0%)
Заголовок : RUS.FORCED
Язык : Russian
Default : Да
Forced : Нет
Текст #2
Идентификатор : 8
Формат : UTF-8
Идентификатор кодека : S_TEXT/UTF8
Идентификатор кодека/Информация : UTF-8 Plain Text
Продолжительность : 1 ч. 40 м.
Битрейт : 73 бит/сек
Count of elements : 985
Размер потока : 54,5 Кбайт (0%)
Заголовок : RUS
Язык : Russian
Default : Нет
Forced : Нет
Текст #3
Идентификатор : 9
Формат : UTF-8
Идентификатор кодека : S_TEXT/UTF8
Идентификатор кодека/Информация : UTF-8 Plain Text
Продолжительность : 1 ч. 40 м.
Битрейт : 44 бит/сек
Count of elements : 927
Размер потока : 32,5 Кбайт (0%)
Заголовок : ENG
Язык : English
Default : Нет
Forced : Нет
Текст #4
Идентификатор : 10
Формат : UTF-8
Идентификатор кодека : S_TEXT/UTF8
Идентификатор кодека/Информация : UTF-8 Plain Text
Продолжительность : 1 ч. 40 м.
Битрейт : 44 бит/сек
Count of elements : 927
Размер потока : 32,5 Кбайт (0%)
Заголовок : ENG - 2
Язык : English
Default : Нет
Forced : Нет
Меню
00:00:00.000 : en:Chapter 1
00:05:24.073 : en:Chapter 2
00:09:52.133 : en:Chapter 3
00:14:15.479 : en:Chapter 4
00:19:13.402 : en:Chapter 5
00:24:33.680 : en:Chapter 6
00:30:57.647 : en:Chapter 7
00:35:30.962 : en:Chapter 8
00:42:16.367 : en:Chapter 9
00:48:17.686 : en:Chapter 10
00:52:26.893 : en:Chapter 11
00:57:28.528 : en:Chapter 12
01:02:40.590 : en:Chapter 13
01:09:54.231 : en:Chapter 14
01:15:54.216 : en:Chapter 15
01:21:00.981 : en:Chapter 16
01:25:33.419 : en:Chapter 17
01:33:54.962 : en:Chapter 18
01:39:53.946 : en:Chapter 19
01:41:28.499 : en:Chapter 20

Скриншоты

отличия от этих раздач
http://torrnada.com/viewtopic.php?t=197497
качеством, размером и тех данными


Показать сообщения:    

Текущее время: 18-Янв 02:47

Часовой пояс: UTC + 3


Вы не можете начинать темы
Вы не можете отвечать на сообщения
Вы не можете редактировать свои сообщения
Вы не можете удалять свои сообщения
Вы не можете голосовать в опросах
Вы не можете прикреплять файлы к сообщениям
Вы не можете скачивать файлы


!ВНИМАНИЕ!
Сайт не предоставляет электронные версии произведений, а занимается лишь коллекционированием и каталогизацией ссылок, присылаемых и публикуемых на форуме нашими читателями. Если вы являетесь правообладателем какого-либо представленного материала и не желаете, чтобы ссылка на него находилась в нашем каталоге, свяжитесь с нами, и мы незамедлительно удалим ее. Файлы для обмена на трекере предоставлены пользователями сайта, и администрация не несет ответственности за их содержание. Просьба не заливать файлы, защищенные авторскими правами, а также файлы нелегального содержания!

Яндекс.Метрика