[Цитировать]

[4K, UHD / BDRip] Гадкий Я 3 / Despicable Me 3 (2017)(Эрик Гуильон, Кайл Балда, Пьер Коффан)(2160p) Год выпуска: 2017
Жанр: Мультфильм, фантастика, боевик, комедия, приключения, семейный
Выпущено: США
Режиссер: Эрик Гуильон, Кайл Балда, Пьер Коффан
Продолжительность: 01:29:40
Перевод: Дублированный
Субтитры: Русские, английские, украинские
Возрастное ограничение: 6+
В ролях: Стив Карелл, Кристен Уиг, Трей Паркер, Миранда Косгров, Дэна Гайер, Пьер Коффан, Стив Кугэн, Джули Эндрюс, Дженни Слейт
О фильме: Семейная приключенческая комедия «Гадкий я 3 » возвращает зрителям полюбившихся героев, — Грю, его возлюбленную Люси, их трех приемных дочек и армию миньонов. Они изменились, — Грю больше не пытается быть супер злодеем, окончательно став супер папой. События предыдущих фильмов доставили им немало беспокойств, и теперь они надеются на заслуженный покой, но не тут-то было! Новые опасности совсем близко, и справиться с ними будет очень непросто.
сэмпл
Гадкий я 3 - Русский Трейлер 3
Техданные
Качество: BDRip (AVC)
Видео: MPEG-4 AVC, 16900 Кбит/с, 3840x1608, 23.976 кадр/с
Аудио: Русский (AC3, 6 ch, 640 Кбит/с), украинский (AC3, 2 ch, 192 Кбит/с), английский (DTS-HD MA, 8 ch, 5524 Кбит/с)
Релиз
Мастер 5
Источник: http://torrnada.com/viewtopic.php?t=197403 45.16 GB _Converted из 10-битного HDR в 8 бит SDR
Профиль формата: [email protected]_8 ми-битный SDR
Аудио:
#1 - Русский / AC3 / 48 KHz / 5.1 ch / 640 Kbps (Дубляж - BD CEE)
#2 - Украинский / AC3 / 48 KHz / 2 ch / 192 Kbps (Дубляж)
#3 - Английский / DTS-HD MA / 48 KHz / 7.1 ch / 5524 Kbps (Original)
Субтитры:
#1 - Русские Форсированные
#2 - Русские Полные
#3 - Украинские Форсированные
#4 - English Full
#5 - English SDH

MI

Общее
Уникальный идентификатор : 204434325841954265270835652016091878060 (0x99CC9E75788CFBFB8B7C801A2816D2AC)
Полное имя : D:\Новая папкаVid\Новая_Мои раздачи\Despicable.Me.3.2017.2160p.BluRay.SDR.8bit.UHD.4K.BDRip.x264.Master5.mkv
Формат : Matroska
Версия формата : Version 4 / Version 2
Размер файла : 14,6 Гбайт
Продолжительность : 1 ч. 29 м.
Общий поток : 23,3 Мбит/сек
Название фильма : Despicable.Me.3.2017.2160p.BluRay.SDR.8bit.UHD.4K.BDRip.x264.Master5
Дата кодирования : UTC 2017-12-09 16:22:00
Программа кодирования : mkvmerge v8.1.0 ('Psychedelic Postcard') 32bit
Библиотека кодирования : libebml v1.3.1 + libmatroska v1.4.2
Обложка : Yes
Attachments : cover.jpg
Видео
Идентификатор : 1
Формат : AVC
Формат/Информация : Advanced Video Codec
Профиль формата : [email protected]
Параметр CABAC формата : Да
Параметр ReFrames формата : 7 кадров
Идентификатор кодека : V_MPEG4/ISO/AVC
Продолжительность : 1 ч. 29 м.
Битрейт : 16,9 Мбит/сек
Ширина : 3840 пикселей
Высота : 1608 пикселей
Соотношение сторон : 2,40:1
Режим частоты кадров : Постоянный
Частота кадров : 23,976 (24000/1001) кадра/сек
Цветовое пространство : YUV
Субдискретизация насыщенности : 4:2:0
Битовая глубина : 8 бит
Тип развёртки : Прогрессивная
Бит/(Пиксели*Кадры) : 0.114
Размер потока : 10,6 Гбайт (73%)
Заголовок : Despicable.Me.3.2017.2160p.BluRay.SDR.8bit.UHD.4K.BDRip.x264.Master5
Библиотека кодирования : x264 core 148 r2748 97eaef2
Настройки программы : cabac=1 / ref=7 / deblock=1:1:1 / analyse=0x3:0x113 / me=umh / subme=10 / psy=1 / psy_rd=0.40:0.00 / mixed_ref=1 / me_range=48 / chroma_me=1 / trellis=2 / 8x8dct=1 / cqm=0 / deadzone=21,11 / fast_pskip=1 / chroma_qp_offset=-2 / threads=50 / lookahead_threads=5 / sliced_threads=0 / nr=0 / decimate=0 / interlaced=0 / bluray_compat=0 / constrained_intra=0 / bframes=5 / b_pyramid=2 / b_adapt=2 / b_bias=0 / direct=3 / weightb=1 / open_gop=0 / weightp=2 / keyint=250 / keyint_min=23 / scenecut=40 / intra_refresh=0 / rc_lookahead=50 / rc=crf / mbtree=1 / crf=18.0 / qcomp=0.60 / qpmin=0 / qpmax=69 / qpstep=4 / ip_ratio=1.40 / aq=1:0.60
Язык : English
Default : Да
Forced : Нет
Аудио #1
Идентификатор : 2
Формат : AC-3
Формат/Информация : Audio Coding 3
Расширение режима : CM (complete main)
Параметр Endianness формата : Big
Идентификатор кодека : A_AC3
Продолжительность : 1 ч. 29 м.
Вид битрейта : Постоянный
Битрейт : 640 Кбит/сек
Каналы : 6 каналов
Расположение каналов : Front: L C R, Side: L R, LFE
Частота : 48,0 КГц
Частота кадров : 31,250 кадров/сек (1536 spf)
Метод сжатия : С потерями
Размер потока : 410 Мбайт (3%)
Заголовок : Дубляж - BD CEE
Язык : Russian
Default : Нет
Forced : Нет
Аудио #2
Идентификатор : 3
Формат : DTS
Формат/Информация : Digital Theater Systems
Профиль формата : X / MA / Core
Режим : 16
Параметр Endianness формата : Big
Идентификатор кодека : A_DTS
Продолжительность : 1 ч. 29 м.
Вид битрейта : Переменный / Переменный / Постоянный
Битрейт : 5524 Кбит/сек / 5524 Кбит/сек / 1509 Кбит/сек
Каналы : Object Based / 8 каналов / 6 каналов
Расположение каналов : Object Based / Front: L C R, Side: L R, Back: L R, LFE / Front: L C R, Side: L R, LFE
Частота : / 48,0 КГц / 48,0 КГц
Частота кадров : 93,750 кадра/сек (512 spf)
Битовая глубина : / 24 бит / 24 бит
Метод сжатия : / Lossless / Lossy
Размер потока : 3,46 Гбайт (24%)
Язык : English
Default : Нет
Forced : Нет
Аудио #3
Идентификатор : 4
Формат : AC-3
Формат/Информация : Audio Coding 3
Расширение режима : CM (complete main)
Параметр Endianness формата : Big
Идентификатор кодека : A_AC3
Продолжительность : 1 ч. 29 м.
Вид битрейта : Постоянный
Битрейт : 192 Кбит/сек
Каналы : 2 канала
Расположение каналов : Front: L R
Частота : 48,0 КГц
Частота кадров : 31,250 кадров/сек (1536 spf)
Метод сжатия : С потерями
Размер потока : 123 Мбайт (1%)
Заголовок : Дубляж
Язык : Ukrainian
Default : Нет
Forced : Нет
Текст #1
Идентификатор : 5
Формат : UTF-8
Идентификатор кодека : S_TEXT/UTF8
Идентификатор кодека/Информация : UTF-8 Plain Text
Продолжительность : 1 ч. 10 м.
Битрейт : 1 бит/сек
Count of elements : 31
Размер потока : 1,01 Кбайт (0%)
Заголовок : Форсированные
Язык : Russian
Default : Да
Forced : Нет
Текст #2
Идентификатор : 6
Формат : UTF-8
Идентификатор кодека : S_TEXT/UTF8
Идентификатор кодека/Информация : UTF-8 Plain Text
Продолжительность : 1 ч. 20 м.
Битрейт : 86 бит/сек
Count of elements : 1083
Размер потока : 51,5 Кбайт (0%)
Заголовок : Полные
Язык : Russian
Default : Нет
Forced : Нет
Текст #3
Идентификатор : 7
Формат : UTF-8
Идентификатор кодека : S_TEXT/UTF8
Идентификатор кодека/Информация : UTF-8 Plain Text
Продолжительность : 1 ч. 20 м.
Битрейт : 1 бит/сек
Count of elements : 32
Размер потока : 1,06 Кбайт (0%)
Заголовок : Форсированные
Язык : Ukrainian
Default : Нет
Forced : Нет
Текст #4
Идентификатор : 8
Формат : UTF-8
Идентификатор кодека : S_TEXT/UTF8
Идентификатор кодека/Информация : UTF-8 Plain Text
Продолжительность : 1 ч. 21 м.
Битрейт : 50 бит/сек
Count of elements : 1152
Размер потока : 30,2 Кбайт (0%)
Заголовок : Full
Язык : English
Default : Нет
Forced : Нет
Текст #5
Идентификатор : 9
Формат : UTF-8
Идентификатор кодека : S_TEXT/UTF8
Идентификатор кодека/Информация : UTF-8 Plain Text
Продолжительность : 1 ч. 21 м.
Битрейт : 65 бит/сек
Count of elements : 1527
Размер потока : 39,2 Кбайт (0%)
Заголовок : SDH
Язык : English
Default : Нет
Forced : Нет
Меню
00:00:00.000 : en:Chapter 1
00:03:06.102 : en:Chapter 2
00:07:57.977 : en:Chapter 3
00:11:12.838 : en:Chapter 4
00:16:15.766 : en:Chapter 5
00:20:07.497 : en:Chapter 6
00:24:07.988 : en:Chapter 7
00:28:57.068 : en:Chapter 8
00:32:55.348 : en:Chapter 9
00:39:01.839 : en:Chapter 10
00:42:44.186 : en:Chapter 11
00:46:47.179 : en:Chapter 12
00:50:55.635 : en:Chapter 13
00:56:12.077 : en:Chapter 14
01:00:02.265 : en:Chapter 15
01:05:41.228 : en:Chapter 16
01:10:14.543 : en:Chapter 17
01:14:33.760 : en:Chapter 18
01:19:29.723 : en:Chapter 19
01:21:56.995 : en:Chapter 20

Скриншоты

отличия от этих раздач + ссылка в пункте источнике
http://torrnada.com/viewtopic.php?t=197370
качеством, размером, тех данными, сжатием


Показать сообщения:    

Текущее время: 18-Янв 02:49

Часовой пояс: UTC + 3


Вы не можете начинать темы
Вы не можете отвечать на сообщения
Вы не можете редактировать свои сообщения
Вы не можете удалять свои сообщения
Вы не можете голосовать в опросах
Вы не можете прикреплять файлы к сообщениям
Вы не можете скачивать файлы


!ВНИМАНИЕ!
Сайт не предоставляет электронные версии произведений, а занимается лишь коллекционированием и каталогизацией ссылок, присылаемых и публикуемых на форуме нашими читателями. Если вы являетесь правообладателем какого-либо представленного материала и не желаете, чтобы ссылка на него находилась в нашем каталоге, свяжитесь с нами, и мы незамедлительно удалим ее. Файлы для обмена на трекере предоставлены пользователями сайта, и администрация не несет ответственности за их содержание. Просьба не заливать файлы, защищенные авторскими правами, а также файлы нелегального содержания!

Яндекс.Метрика