[Цитировать]

-Сфера / The Circle (2017) BDRip 720p-- Название: Сфера
Оригинальное название: The Circle
Год выхода: 2017
Жанр: Фантастика, Триллер, Драма
Режиссер: Джеймс Понсольдт
В ролях: Карен Гиллан, Эмма Уотсон, Том Хэнкс, Джон Бойега, Эллар Колтрейн, Эллен Вонг, Билл Пэкстон, Пэттон Освальт, Гленн Хедли, Пурна Джаганнатхан
О фильме:
Фильм расскажет об интернет-компании The Circle, объединяющей в единую систему электронную почту своих пользователей, странички в социальных сетях, информацию о банковских картах и покупках. Результатом этого процесса становится получение человеком универсального онлайн-идентификатора. Но на практике не все так гладко: проект, позиционируемый как новая ступень в развитии технологий, преследует и другие, более грязные цели.
Страна: ОАЭ, США
Студия: Imagenation Abu Dhabi FZ, Likely Story, MacDonald/Parkes Productions, Playtone, Route One Films
Продолжительность: 01:49:47
Перевод: Дублированный | iTunes
Файл
Кодек: MPEG-4 AVC
Качество: BDRip 720p | iTunes
Видео: AVC/H.264, 1280x534, ~6000 Kbps
Звук:
Аудио №1: AC3, 2 ch, 192 Kbps - Русский
Аудио №2: DTS, 6 ch, 1509 Kbps - Английский
Субтитры: Английские
Семпл

Mediainfo

Общее
Уникальный идентификатор : 204829442917803456252703427827415730531 (0x9A18B73C18CC14468205F34EB0AD4963)
Полное имя : The Circle.2017.BDRip.720p.mkv
Формат : Matroska
Версия формата : Version 2
Размер файла : 5,90 Гбайт
Продолжительность : 1 ч. 49 м.
Общий поток : 7699 Кбит/сек
Название фильма : The.Circle.2017.720p.BluRay.x264.DTS-HDC
Дата кодирования : UTC 2017-07-20 11:41:12
Программа кодирования : mkvmerge v4.0.0 ('The Stars were mine') сборка от Jun 6 2010 16:18:42
Библиотека кодирования : libebml v1.0.0 + libmatroska v1.0.0
Видео
Идентификатор : 1
Формат : AVC
Формат/Информация : Advanced Video Codec
Профиль формата : [email protected]
Параметр CABAC формата : Да
Параметр RefFrames формата : 12 кадров
Идентификатор кодека : V_MPEG4/ISO/AVC
Продолжительность : 1 ч. 49 м.
Битрейт : 6000 Кбит/сек
Ширина : 1280 пикселей
Высота : 534 пикселя
Соотношение сторон : 2,40:1
Режим частоты кадров : Постоянный
Частота кадров : 23,976 (24000/1001) кадра/сек
Цветовое пространство : YUV
Субдискретизация насыщенности : 4:2:0
Битовая глубина : 8 бит
Тип развёртки : Прогрессивная
Бит/(Пиксели*Кадры) : 0.366
Размер потока : 4,48 Гбайт (76%)
Библиотека кодирования : x264 core 148 r2665kMod a01e339
Настройки программы : cabac=1 / ref=12 / deblock=1:-3:-3 / analyse=0x3:0x133 / me=umh / subme=11 / psy=1 / fade_compensate=0.00 / psy_rd=1.05:0.00 / mixed_ref=1 / me_range=32 / chroma_me=1 / trellis=2 / 8x8dct=1 / cqm=0 / deadzone=21,11 / fast_pskip=0 / chroma_qp_offset=-2 / threads=17 / lookahead_threads=2 / sliced_threads=0 / nr=0 / decimate=0 / interlaced=0 / bluray_compat=0 / constrained_intra=0 / fgo=0 / bframes=8 / b_pyramid=2 / b_adapt=2 / b_bias=0 / direct=3 / weightb=1 / open_gop=0 / weightp=2 / keyint=240 / keyint_min=24 / scenecut=40 / intra_refresh=0 / rc=2pass / mbtree=0 / bitrate=6000 / ratetol=1.0 / qcomp=0.70 / qpmin=0 / qpmax=69 / qpstep=4 / cplxblur=20.0 / qblur=0.5 / ip_ratio=1.20 / pb_ratio=1.20 / aq=3:0.85
Язык : English
Default : Нет
Forced : Нет
Аудио #1
Идентификатор : 2
Формат : AC-3
Формат/Информация : Audio Coding 3
Параметр Endianness формата : Big
Идентификатор кодека : A_AC3
Продолжительность : 1 ч. 49 м.
Вид битрейта : Постоянный
Битрейт : 192 Кбит/сек
Каналы : 2 канала
Расположение каналов : Front: L R
Частота : 48,0 КГц
Частота кадров : 31,250 кадров/сек (1536 SPF)
Битовая глубина : 16 бит
Метод сжатия : С потерями
Размер потока : 151 Мбайт (2%)
Язык : Russian
ServiceKind : Complete Main
Default : Да
Forced : Нет
Аудио #2
Идентификатор : 3
Формат : DTS
Формат/Информация : Digital Theater Systems
Режим : 16
Параметр Endianness формата : Big
Идентификатор кодека : A_DTS
Продолжительность : 1 ч. 49 м.
Вид битрейта : Постоянный
Битрейт : 1509 Кбит/сек
Каналы : 6 каналов
Расположение каналов : Front: L C R, Side: L R, LFE
Частота : 48,0 КГц
Частота кадров : 93,750 кадра/сек (512 SPF)
Битовая глубина : 24 бит
Метод сжатия : С потерями
Задержка видео : 11 мс.
Размер потока : 1,16 Гбайт (20%)
Язык : English
Default : Нет
Forced : Нет
Текст
Идентификатор : 4
Формат : UTF-8
Идентификатор кодека : S_TEXT/UTF8
Идентификатор кодека/Информация : UTF-8 Plain Text
Язык : English
Default : Нет
Forced : Нет
Меню
00:00:00.000 : en:00:00:00.000
00:06:04.322 : en:00:06:04.322
00:11:53.004 : en:00:11:53.004
00:19:04.977 : en:00:19:04.977
00:26:58.534 : en:00:26:58.534
00:32:36.037 : en:00:32:36.037
00:39:19.440 : en:00:39:19.440
00:46:00.341 : en:00:46:00.341
00:51:28.252 : en:00:51:28.252
00:59:33.236 : en:00:59:33.236
01:07:45.561 : en:01:07:45.561
01:14:28.214 : en:01:14:28.214
01:24:31.900 : en:01:24:31.900
01:31:28.233 : en:01:31:28.233
01:34:59.527 : en:01:34:59.527
01:40:35.571 : en:01:40:35.571

Скриншоты



Показать сообщения:    

Текущее время: 18-Янв 01:09

Часовой пояс: UTC + 3


Вы не можете начинать темы
Вы не можете отвечать на сообщения
Вы не можете редактировать свои сообщения
Вы не можете удалять свои сообщения
Вы не можете голосовать в опросах
Вы не можете прикреплять файлы к сообщениям
Вы не можете скачивать файлы


!ВНИМАНИЕ!
Сайт не предоставляет электронные версии произведений, а занимается лишь коллекционированием и каталогизацией ссылок, присылаемых и публикуемых на форуме нашими читателями. Если вы являетесь правообладателем какого-либо представленного материала и не желаете, чтобы ссылка на него находилась в нашем каталоге, свяжитесь с нами, и мы незамедлительно удалим ее. Файлы для обмена на трекере предоставлены пользователями сайта, и администрация не несет ответственности за их содержание. Просьба не заливать файлы, защищенные авторскими правами, а также файлы нелегального содержания!

Яндекс.Метрика