[Цитировать]

Максим Негодов | Бесшумный ПК (2016) - Автор: Максим Негодов
Производство: ЧП «Негодов Максим Фёдорович»
Жанр: Обучающее видео
Описание:
Раздражает постоянный шум компьютера, но вы не знаете, что с этим делать? Автор подготовил для вас видеокурс, изучив который вы узнаете, как быстро избавиться от шума компьютера и сделать его комфортным для учебы, игр или работы.
Полученная информация поможет Вам не только понизить уровень шума Вашего ПК и сделать его полностью бесшумным, но и позволит сделать это с минимальными затратами. Изучив видеокурс, Вы будете обладать всеми необходимыми знаниями для того, чтобы не только модернизировать свой компьютер в бесшумный или тихий, но и сможете использовать полученные знания для покупки или сборки нового бесшумного компьютера.

Изучив курс Вы узнаете:

    Как регулировать обороты вентиляторов с помощью программ;
    Как настроить работу вентиляторов видеокарты на тихую работу;
    Как уменьшить шум жесткого диска;
    Что необходимо сделать после настройки работы вентиляторов (важно);
    Какие есть минусы в использовании программ для регулирования скорости вращения вентиляторов;
    Где лучше устанавливать вентиляторы для более правильного охлаждения системного блока;
    Какое расположение блока питания в корпусе лучше выбрать? (это нужно учитывать при выборе корпуса);
    Если регулировать скорость вентилятора, то какая скорость оптимальная по уровню шума/производительности;
    Что может сократить срок службы вентилятора и как этого избежать;
    Как выполняется установка и подключение вентиляторов;
    Какой корпус лучше использовать для тихого игрового, а какой для бесшумного компьютера;
    Какие параметры необходимо учитывать при выборе системы охлаждения процессора, чтоб она была не только совместима с процессором, но и хорошо охлаждала его в бесшумном режиме;
    Как проверить, можно ли устанавливать пассивную (без вентилятора) систему охлаждения на Ваш процессор;
    Что такое TDP процессора и как найти информацию об этом параметре;
    Какой параметр необходимо учитывать при выборе вентилятора для системы охлаждения процессора;
    Почему одни вентиляторы лучше использовать для охлаждения системного блока, а другие - для охлаждения процессора;
    Как заменить стандартную систему охлаждения процессора на более производительную (башенного типа);
    Какие параметры необходимо учитывать при выборе системы охлаждения видеокарты;
    Где найти информацию о TDP видеокарты;
    Как заменить систему охлаждения видеокарты;
    В чем преимущества и недостатки пассивного охлаждения жесткого диска;
    Как правильно выбрать твердотельный накопитель (SSD) и установить его;
    Какие есть способы уменьшения шума блока питания;
    И многое другое...

Содержание

Диск 1:[list=]
  • Введение
  • Определяем причину
  • Уменьшаем шум с помощью программ
  • Модернизируем компьютер
  • Сравниваем стоимостьДиск 2:[list=]
  • Выбор комплектующих для бесшумного ПК
  • Профилактика жёсткого диска
  • Примеры и результаты модернизацииБонусы:
      Мини-курс по выбору комплектующих
      Уроки по профилактике жесткого диска
      Пример и результаты модернизации
  • MI

    Общее
    Полное имя                               : H:\12.01.2018\Бесшумный ПК\Disk2\lessons\03_upgrade_result.mp4
    Формат                                   : MPEG-4
    Профиль формата                          : Base Media / Version 2
    Идентификатор кодека                     : mp42 (M4V /mp42/isom)
    Размер файла                             : 362 Мбайт
    Продолжительность                        : 13 м. 34 с.
    Режим общего битрейта                    : Переменный
    Общий поток                              : 3729 Кбит/сек
    Дата кодирования                         : UTC 2016-04-23 11:22:47
    Дата пометки                             : UTC 2016-04-23 11:22:47
    Видео
    Идентификатор                            : 1
    Формат                                   : AVC
    Формат/Информация                        : Advanced Video Codec
    Профиль формата                          : [email protected]
    Настройки формата                        : CABAC / 4 Ref Frames
    Параметр CABAC формата                   : Да
    Параметр RefFrames формата               : 4 кадра
    Идентификатор кодека                     : avc1
    Идентификатор кодека/Информация          : Advanced Video Coding
    Продолжительность                        : 13 м. 34 с.
    Продолжительность оригинала              : 13 м. 34 с.
    Вид битрейта                             : Переменный
    Битрейт                                  : 3602 Кбит/сек
    Максимальный битрейт                     : 4403 Кбит/сек
    Ширина                                   : 1280 пикселей
    Высота                                   : 720 пикселей
    Соотношение сторон                       : 16:9
    Режим частоты кадров                     : Постоянный
    Частота кадров                           : 25,000 кадров/сек
    Стандарт вещания                         : PAL
    Цветовое пространство                    : YUV
    Субдискретизация насыщенности            : 4:2:0
    Битовая глубина                          : 8 бит
    Тип развёртки                            : Прогрессивная
    Бит/(Пиксели*Кадры)                      : 0.156
    Размер потока                            : 350 Мбайт (97%)
    Размер потока оригинала                  : 350 Мбайт (97%)
    Язык                                     : English
    Дата кодирования                         : UTC 2016-04-23 11:22:47
    Дата пометки                             : UTC 2016-04-23 11:22:47
    Цветовой диапазон                        : Limited
    Основные цвета                           : BT.709
    Характеристики трансфера                 : BT.709
    Коэффициенты матрицы                     : BT.709
    mdhd_Duration                            : 814589
    Аудио
    Идентификатор                            : 2
    Формат                                   : AAC
    Формат/Информация                        : Advanced Audio Codec
    Профиль формата                          : LC
    Идентификатор кодека                     : mp4a-40-2
    Продолжительность                        : 13 м. 34 с.
    Продолжительность оригинала              : 13 м. 34 с.
    Вид битрейта                             : Постоянный
    Битрейт                                  : 125 Кбит/сек
    Каналы                                   : 2 канала
    Расположение каналов                     : Front: L R
    Частота                                  : 44,1 КГц
    Частота кадров                           : 43,066 кадра/сек (1024 SPF)
    Метод сжатия                             : С потерями
    Размер потока                            : 12,1 Мбайт (3%)
    Размер потока оригинала                  : 12,1 Мбайт (3%)
    Язык                                     : English
    Дата кодирования                         : UTC 2016-04-23 11:22:47
    Дата пометки                             : UTC 2016-04-23 11:22:47
    mdhd_Duration                            : 814450
    Скриншоты:


    Показать сообщения:    

    Текущее время: 18-Янв 01:11

    Часовой пояс: UTC + 3


    Вы не можете начинать темы
    Вы не можете отвечать на сообщения
    Вы не можете редактировать свои сообщения
    Вы не можете удалять свои сообщения
    Вы не можете голосовать в опросах
    Вы не можете прикреплять файлы к сообщениям
    Вы не можете скачивать файлы
    

    !ВНИМАНИЕ!
    Сайт не предоставляет электронные версии произведений, а занимается лишь коллекционированием и каталогизацией ссылок, присылаемых и публикуемых на форуме нашими читателями. Если вы являетесь правообладателем какого-либо представленного материала и не желаете, чтобы ссылка на него находилась в нашем каталоге, свяжитесь с нами, и мы незамедлительно удалим ее. Файлы для обмена на трекере предоставлены пользователями сайта, и администрация не несет ответственности за их содержание. Просьба не заливать файлы, защищенные авторскими правами, а также файлы нелегального содержания!

    Яндекс.Метрика