[Цитировать]

Море. Горы. Керамзит Оригинальное название: Море. Горы. Керамзит
Год выпуска: 2013
Жанр: Комедия, мелодрама
Режиссер: Тигран Кеосаян
В ролях: Дана Абызова, Армен Арушанян, Артём Быстров, Софья Реснянская, Сергей Газаров, Ия Нинидзе, Сергей Никоненко, Юрий Стоянов, Лариса Гузеева, Демис Карибидис, Андрей Кайков, Александр Жулин, Олег Алмазов, Лаура Кеосаян, Джулиано Ди Капуа, Андрей Лавров, Татьяна Казючиц, Ходжадурды Нарлиев, Александр Сибирцев (II), Александр Кузнецов (I)
О фильме: В одном из прибрежных поселков Сочи под названием "Веселый" русские староверы соседствуют бок о бок с черкесами, армянами, греками. Течет размеренная жизнь: староверы молятся и выращивают овощи, остальные – зарабатывают на туристах. Сын хозяев хинкальной Армен влюбляется в девушку староверку Серафиму. Внезапно привычную жизнь поселка нарушает известие: в Сочи будет Олимпиада. В поселок Веселый приходит олимпийская стройка. Местные жители воспринимают Олимпиаду в штыки…
Выпущено: Россия, Голд Вижн
Продолжительность: 8 х ~ 00:44:00
Качество: HDTVRip
Формат: avi
Видео: XviD, ~ 1700 Кбит/с, 720x400
Аудио: AC3, 2 ch, 192 Кбит/с

MI

Complete name : \\DLINK-E826FB\Volume_2\НОВОЕ СКАЧАННОЕ\More.Gory.Keramzit.HDTVRip.MediaClub\More.Gory.Keramzit.07.HDTVRip.MediaClub.avi
Format : AVI
Format/Info : Audio Video Interleave
File size : 569 MiB
Duration : 41mn 48s
Overall bit rate : 1 904 Kbps
Writing application : VirtualDubMod 1.5.10.3 (build 2550/release)
Writing library : VirtualDub build 32507/release
Video
ID : 0
Format : MPEG-4 Visual
Format profile : Advanced [email protected]
Format settings, BVOP : 2
Format settings, QPel : No
Format settings, GMC : No warppoints
Format settings, Matrix : Custom
Muxing mode : Packed bitstream
Codec ID : XVID
Codec ID/Hint : XviD
Duration : 41mn 48s
Bit rate : 1 702 Kbps
Width : 720 pixels
Height : 400 pixels
Display aspect ratio : 16:9
Frame rate : 25.000 fps
Color space : YUV
Chroma subsampling : 4:2:0
Bit depth : 8 bits
Scan type : Progressive
Compression mode : Lossy
Bits/(Pixel*Frame) : 0.236
Stream size : 509 MiB (89%)
Writing library : XviD 73
Audio
ID : 1
Format : AC-3
Format/Info : Audio Coding 3
Mode extension : CM (complete main)
Format settings, Endianness : Big
Codec ID : 2000
Duration : 41mn 48s
Bit rate mode : Constant
Bit rate : 192 Kbps
Channel(s) : 2 channels
Channel positions : Front: L R
Sampling rate : 48.0 KHz
Bit depth : 16 bits
Compression mode : Lossy
Delay relative to video : 16ms
Stream size : 57.4 MiB (10%)
Alignment : Split accross interleaves
Interleave, duration : 40 ms (1.00 video frame)
Interleave, preload duration : 500 ms
ax


Показать сообщения:    

Текущее время: 19-Янв 04:17

Часовой пояс: UTC + 3


Вы не можете начинать темы
Вы не можете отвечать на сообщения
Вы не можете редактировать свои сообщения
Вы не можете удалять свои сообщения
Вы не можете голосовать в опросах
Вы не можете прикреплять файлы к сообщениям
Вы не можете скачивать файлы


!ВНИМАНИЕ!
Сайт не предоставляет электронные версии произведений, а занимается лишь коллекционированием и каталогизацией ссылок, присылаемых и публикуемых на форуме нашими читателями. Если вы являетесь правообладателем какого-либо представленного материала и не желаете, чтобы ссылка на него находилась в нашем каталоге, свяжитесь с нами, и мы незамедлительно удалим ее. Файлы для обмена на трекере предоставлены пользователями сайта, и администрация не несет ответственности за их содержание. Просьба не заливать файлы, защищенные авторскими правами, а также файлы нелегального содержания!

Яндекс.Метрика