Статистика раздачи | Обновить пиров
Качаю: [ 3 ]
Скачал: [ 9 ]
 
   
 
 

[Цитировать]

- Источник (2016) WEB-DL (720p)- Производство: Россия, Кинокомпания «Солис Фильм»
Жанр: Драма
Режиссер: Надежда Витальская
Продюсер: Максим Лещенко
Актеры: Иван Янковский, Валентина Колева, Роза Хайруллина, Александр Рапопорт, Павел Делонг, Светлана Нарышкина, Денис Курочка, Максим Заусалин, Игорь Черкашин, Яна Кошкина
Описание:
Иван, типичный житель современного мегаполиса, по работе приезжает в провинциальный город. По плану здесь на месте лесного массива будет построен туристический комплекс. Осматривая место для строительства в лесу, Иван встречает юную красавицу Алёну и влюбляется в неё. Алёна не похожа на тех девушек, с которыми Иван встречался раньше, он околдован её свежестью и чистотой. Вспыхнувшему чувству молодых людей мешает всё: и власти города, и старший брат Ивана, и обстоятельства, складывающиеся не в их пользу. А самое главное то, что они абсолютно из разных миров. Смогут ли они преодолеть все препятствия и быть вместе, ведь они такие разные?…
Продолжительность: 01:21:18
Качество видео: WEB-DL (720p)
Перевод: Не требуется
Субтитры: Отсутствуют
Видео: AVC/H.264, 1280x536, ~4022 Кбит/с
Аудио: AC3, 6 ch, 384 Кбит/с

MediaInfo

Общее
Уникальный идентификатор : 179805597952984963628417781114111652557 (0x87454C6C3D6D856DBD88078BA1ADF2CD)
Полное имя : IstoCHniK.2O16.O.WEB-DL.720p..mkv
Формат : Matroska
Версия формата : Version 2
Размер файла : 2,82 Гбайт
Продолжительность : 1 ч. 31 м.
Общий поток : 4408 Кбит/сек
Дата кодирования : UTC 2016-12-24 19:34:20
Программа кодирования : mkvmerge v8.3.0 ('Over the Horizon') 64bit
Библиотека кодирования : libebml v1.3.1 + libmatroska v1.4.2
Видео
Идентификатор : 1
Формат : AVC
Формат/Информация : Advanced Video Codec
Профиль формата : [email protected]
Параметр CABAC формата : Нет
Параметр ReFrames формата : 2 кадра
Идентификатор кодека : V_MPEG4/ISO/AVC
Продолжительность : 1 ч. 31 м.
Битрейт : 4022 Кбит/сек
Ширина : 1280 пикселей
Высота : 536 пикселей
Соотношение сторон : 2,40:1
Режим частоты кадров : Постоянный
Частота кадров : 24,000 кадра/сек
Цветовое пространство : YUV
Субдискретизация насыщенности : 4:2:0
Битовая глубина : 8 бит
Тип развёртки : Прогрессивная
Бит/(Пиксели*Кадры) : 0.244
Размер потока : 2,57 Гбайт (91%)
Язык : English
Default : Да
Forced : Нет
Цветовой диапазон : Limited
Основные цвета : BT.709
Характеристики трансфера : BT.709
Коэффициенты матрицы : BT.709
Аудио
Идентификатор : 2
Формат : AC-3
Формат/Информация : Audio Coding 3
Расширение режима : CM (complete main)
Параметр Endianness формата : Big
Идентификатор кодека : A_AC3
Продолжительность : 1 ч. 31 м.
Вид битрейта : Постоянный
Битрейт : 384 Кбит/сек
Каналы : 6 каналов
Расположение каналов : Front: L C R, Side: L R, LFE
Частота : 48,0 КГц
Частота кадров : 31,250 кадров/сек (1536 spf)
Метод сжатия : С потерями
Размер потока : 251 Мбайт (9%)
Язык : Russian
Default : Да
Forced : Нет
Меню
00:00:00.000 : en:Глава 1
00:07:17.625 : en:Глава 2
00:14:08.958 : en:Глава 3
00:21:29.583 : en:Глава 4
00:28:01.041 : en:Глава 5
00:35:05.166 : en:Глава 6
00:41:49.999 : en:Глава 7
00:48:39.999 : en:Глава 8
00:55:11.457 : en:Глава 9
01:01:44.457 : en:Глава 10
01:09:02.915 : en:Глава 11
01:16:20.915 : en:Глава 12
01:24:08.123 : en:Глава 13

Скриншоты



Показать сообщения:    

Текущее время: 25-Мар 03:09

Часовой пояс: UTC + 3


Вы не можете начинать темы
Вы не можете отвечать на сообщения
Вы не можете редактировать свои сообщения
Вы не можете удалять свои сообщения
Вы не можете голосовать в опросах
Вы не можете прикреплять файлы к сообщениям
Вы не можете скачивать файлы

!ВНИМАНИЕ!
Сайт не предоставляет электронные версии произведений, а занимается лишь коллекционированием и каталогизацией ссылок, присылаемых и публикуемых на форуме нашими читателями. Если вы являетесь правообладателем какого-либо представленного материала и не желаете, чтобы ссылка на него находилась в нашем каталоге, свяжитесь с нами, и мы незамедлительно удалим ее. Файлы для обмена на трекере предоставлены пользователями сайта, и администрация не несет ответственности за их содержание. Просьба не заливать файлы, защищенные авторскими правами, а также файлы нелегального содержания!