Статистика раздачи | Обновить пиров
Качаю: [ 3 ]
Скачал: [ 26 ]
 
   
 
 

[Цитировать]

- Военный фитнес (2016) HDTV [H.264/1080i]- Производство: Россия / Art Pictures
Жанр: Мелодрама, Спорт
Режиссер: Эдуард Бордуков
Актеры: Константин Соловьев, Анастасия Пронина, Данила Якушев, Екатерина Соломатина, Александра Велескевич, Соня Реснянская, Мария Скорницкая, Анна Глаубэ
Описание:
Жимов является капитаном российской армии. Вот только у него имеется одна довольно-таки странная болезнь, а если быть точнее, то аллергия на женщин. Причем, в прямом смысле этого слова, ведь при нахождении рядом с ними он начинает чихать, чесаться и так далее, поэтому он, собственно говоря, их откровенно ненавидит и старается всевозможными способами избегать. Однако вскоре его командиром становиться полковник Царева, и вскоре капитану выдвигают неприятное условие - либо он будет мириться с подобным начальством, либо же его попросту уволят. В итоге Жимову приходится устроиться фитнес-тренером в женский спортивный лагерь. Здесь капитана ждет самая настоящая война, в которой Жимов в итоге отвоюет не только место в армии, но и свою настоящую любовь.
Продолжительность: 01:41:34
Качество видео: HDTV [1080i]
Видео: AVC/H.264, 1920x1080, ~5107 Kbps
Аудио: MP2, 2 ch, 192 kb/s, CBR

MediaInfo

Общее
Идентификатор : 16 (0x10)
Полное имя : Voennyy_fitnes_HD.ts
Формат : MPEG-TS
Размер файла : 3,96 Гбайт
Продолжительность : 1 ч. 41 м.
Режим общего битрейта : Переменный
Общий поток : 5576 Кбит/сек
Видео
Идентификатор : 1502 (0x5DE)
Идентификатор меню : 502 (0x1F6)
Формат : AVC
Формат/Информация : Advanced Video Codec
Профиль формата : [email protected]
Параметр CABAC формата : Да
Параметр ReFrames формата : 3 кадра
Параметр GOP формата : M=4, N=32
Идентификатор кодека : 27
Продолжительность : 1 ч. 41 м.
Битрейт : 5107 Кбит/сек
Ширина : 1920 пикселей
Высота : 1080 пикселей
Соотношение сторон : 16:9
Частота кадров : 25,000 кадров/сек
Стандарт вещания : PAL
Цветовое пространство : YUV
Субдискретизация насыщенности : 4:2:0
Битовая глубина : 8 бит
Тип развёртки : Чересстрочная
Порядок развёртки : Верхнее поле первое
Бит/(Пиксели*Кадры) : 0.099
Размер потока : 3,62 Гбайт (92%)
Основные цвета : BT.709
Характеристики трансфера : BT.709
Коэффициенты матрицы : BT.709
Аудио
Идентификатор : 2502 (0x9C6)
Идентификатор меню : 502 (0x1F6)
Формат : MPEG Audio
Версия формата : Version 1
Профиль формата : Layer 2
Идентификатор кодека : 4
Продолжительность : 1 ч. 41 м.
Вид битрейта : Постоянный
Битрейт : 192 Кбит/сек
Каналы : 2 канала
Частота : 48,0 КГц
Метод сжатия : С потерями
Задержка видео : 16 мс.
Размер потока : 139 Мбайт (3%)
Язык : std
Язык, дополнительно : Clean effects

Скриншоты

[Цитировать]

фильм bb

[Цитировать]

aa


Показать сообщения:    

Текущее время: 28-Апр 16:52

Часовой пояс: UTC + 3


Вы не можете начинать темы
Вы не можете отвечать на сообщения
Вы не можете редактировать свои сообщения
Вы не можете удалять свои сообщения
Вы не можете голосовать в опросах
Вы не можете прикреплять файлы к сообщениям
Вы не можете скачивать файлы

!ВНИМАНИЕ!
Сайт не предоставляет электронные версии произведений, а занимается лишь коллекционированием и каталогизацией ссылок, присылаемых и публикуемых на форуме нашими читателями. Если вы являетесь правообладателем какого-либо представленного материала и не желаете, чтобы ссылка на него находилась в нашем каталоге, свяжитесь с нами, и мы незамедлительно удалим ее. Файлы для обмена на трекере предоставлены пользователями сайта, и администрация не несет ответственности за их содержание. Просьба не заливать файлы, защищенные авторскими правами, а также файлы нелегального содержания!