Статистика раздачи | Обновить пиров
Качаю: [ 4 ]
Скачал: [ 14 ]
 
   
 
 

[Цитировать]

-Бен-Гур / Ben-Hur (2016) BDRip - Производство: США, LightWorkers Media, Metro-Goldwyn-Mayer (MGM), Paramount Pictures
Жанр: Боевик, Драма, Приключения
Режиссер: Тимур Бекмамбетов
Продюсер: Марк Барнетт, Шон Дэниэл, Дункан Хендерсон
Актеры: Джек Хьюстон, Тоби Кеббелл, Родриго Санторо, Назанин Бониади, Айелет Зурер, Йохан Филип Асбек, София Блэк-Д`Элиа, Морган Фримен, Марван Кензари, Мойзес Ариас
Описание:
История Бен-Гура, потомка знатного иудейского рода, который был предан своим лучшим другом-римлянином. Проведя много лет в рабстве на римских галерах, Бен-Гур в итоге получает возможность вернуться на родину и отомстить обидчику.

Возраст: 16+ (зрителям, достигшим 16 лет)
Рейтинг MPAA: PG-13 (детям до 13 лет просмотр нежелателен)
Дата мировой премьеры: 17 августа 2016
Дата премьеры в России: 8 сентября 2016, «Централ Партнершип»

Продолжительность: 02:04:43
Качество видео: BDRip
Перевод: Дублированный (iTunes)
Вид субтитров: Отсутствуют
Видео: AVC/H.264, 1024x428 (2.40:1), 2114 kbps, 23.976 fps
Аудио: 48 kHz, AC3 Dolby Digital, 3/2 (L,C,R,l,r) + LFE ch, ~384 kbps Общее
Уникальный идентификатор : 204801649009654910715274972441818965955 (0x9A135CE3A7FC85D0B5AAAE3834B027C3)

MI

Полное имя                               : Бен-Гур.2016.BDRip.mkv
Формат                                   : Matroska
Версия формата                           : Version 2
Размер файла                             : 2,17 Гбайт
Продолжительность                        : 2 ч. 4 м.
Общий поток                              : 2489 Кбит/сек
Название фильма                          : Бен-Гур.2016.BDRip.NNMClub
Дата кодирования                         : UTC 2017-01-11 22:06:34
Программа кодирования                    : mkvmerge v8.3.0 ('Over the Horizon') 64bit
Библиотека кодирования                   : libebml v1.3.1 + libmatroska v1.4.2
Видео
Идентификатор                            : 1
Формат                                   : AVC
Формат/Информация                        : Advanced Video Codec
Профиль формата                          : [url=mailto:[email protected]][email protected][/url]
Параметр CABAC формата                   : Да
Параметр ReFrames формата                : 12 кадров
Идентификатор кодека                     : V_MPEG4/ISO/AVC
Продолжительность                        : 2 ч. 4 м.
Битрейт                                  : 2114 Кбит/сек
Ширина                                   : 1024 пикселя
Высота                                   : 428 пикселей
Соотношение сторон                       : 2,40:1
Режим частоты кадров                     : Постоянный
Частота кадров                           : 23,976 кадра/сек
Цветовое пространство                    : YUV
Субдискретизация насыщенности            : 4:2:0
Битовая глубина                          : 8 бит
Тип развёртки                            : Прогрессивная
Бит/(Пиксели*Кадры)                      : 0.201
Размер потока                            : 1,79 Гбайт (83%)
Заголовок                                : Бен-Гур.2016.BDRip.NNMClub
Библиотека кодирования                   : x264 core 148 r2638 7599210
Настройки программы                      : cabac=1 / ref=12 / deblock=1:-2:-1 / analyse=0x3:0x113 / me=umh / subme=11 / psy=1 / psy_rd=0.00:0.15 / mixed_ref=1 / me_range=32 / chroma_me=1 / trellis=2 / 8x8dct=1 / cqm=0 / deadzone=21,11 / fast_pskip=0 / chroma_qp_offset=-3 / threads=6 / lookahead_threads=1 / sliced_threads=0 / nr=0 / decimate=1 / interlaced=0 / bluray_compat=0 / constrained_intra=0 / bframes=12 / b_pyramid=2 / b_adapt=2 / b_bias=0 / direct=1 / weightb=0 / open_gop=0 / weightp=2 / keyint=240 / keyint_min=23 / scenecut=40 / intra_refresh=0 / rc_lookahead=40 / rc=2pass / mbtree=1 / bitrate=2114 / ratetol=1.0 / qcomp=0.70 / qpmin=0 / qpmax=69 / qpstep=4 / cplxblur=20.0 / qblur=0.5 / vbv_maxrate=50000 / vbv_bufsize=65500 / nal_hrd=none / filler=0 / ip_ratio=1.40 / aq=1:1.00
Язык                                     : English
Default                                  : Да
Forced                                   : Нет
Аудио
Идентификатор                            : 2
Формат                                   : AC-3
Формат/Информация                        : Audio Coding 3
Расширение режима                        : CM (complete main)
Параметр Endianness формата              : Big
Идентификатор кодека                     : A_AC3
Продолжительность                        : 2 ч. 4 м.
Вид битрейта                             : Постоянный
Битрейт                                  : 384 Кбит/сек
Каналы                                   : 6 каналов
Расположение каналов                     : Front: L C R, Side: L R, LFE
Частота                                  : 48,0 КГц
Метод сжатия                             : С потерями
Размер потока                            : 343 Мбайт (15%)
Заголовок                                : iTunes
Язык                                     : Russian
Default                                  : Да
Forced                                   : Да
Меню
00:00:00.000                             : en:Chapter 1
00:07:03.882                             : en:Chapter 2
00:15:42.942                             : en:Chapter 3
00:19:47.895                             : en:Chapter 4
00:27:25.853                             : en:Chapter 5
00:33:09.362                             : en:Chapter 6
00:41:07.215                             : en:Chapter 7
00:48:20.064                             : en:Chapter 8
00:55:21.652                             : en:Chapter 9
01:05:41.229                             : en:Chapter 10
01:13:15.891                             : en:Chapter 11
01:22:26.900                             : en:Chapter 12
01:31:30.193                             : en:Chapter 13
01:39:55.656                             : en:Chapter 14
01:46:30.801                             : en:Chapter 15
01:54:54.638                             : en:Chapter 16
Скриншоты:


Показать сообщения:    

Текущее время: 25-Мар 03:09

Часовой пояс: UTC + 3


Вы не можете начинать темы
Вы не можете отвечать на сообщения
Вы не можете редактировать свои сообщения
Вы не можете удалять свои сообщения
Вы не можете голосовать в опросах
Вы не можете прикреплять файлы к сообщениям
Вы не можете скачивать файлы

!ВНИМАНИЕ!
Сайт не предоставляет электронные версии произведений, а занимается лишь коллекционированием и каталогизацией ссылок, присылаемых и публикуемых на форуме нашими читателями. Если вы являетесь правообладателем какого-либо представленного материала и не желаете, чтобы ссылка на него находилась в нашем каталоге, свяжитесь с нами, и мы незамедлительно удалим ее. Файлы для обмена на трекере предоставлены пользователями сайта, и администрация не несет ответственности за их содержание. Просьба не заливать файлы, защищенные авторскими правами, а также файлы нелегального содержания!