Статистика раздачи | Обновить пиров
Скачал
 
   
 
 

[Цитировать]

- Выстрел в степи (1990) VHSRip - Производство: Киргизфильм
Жанр: Драма
Режиссёр: Кадыржан Кыдыралиев
Актёры: Мурат Мамбетов, Нагира Джумагулова, Дюшенбек Байтобетов, Токон Даирбеков, Акжолтой Кочкорбаева, Асанкул Осмонов, Тынара Абдыразаева, Турсун Уралиев, Асанкул Осмонов, С.Мырзалиева
Описание:
Вернулся на родину Сагын, устроился на работу, влюбился и получил такое наставление от родных: "Главнее всего в дружбе с Алмазом быть. У кого с ним отношения добрые, тот живёт. А если обидется - хоть беги. Он привык, чтоб его все уважали, соглашались всегда с ним. Если попросит что-то, тут уж отказываться не вздумай."
И вот однажды Сагын становится свидетелем преступления...
Возраст: 16+ (зрителям, достигшим 16 лет)
Продолжительность: 01:05:18
Качество видео: VHSRip
Видео: Xvid, 720x544, ~1363 Kbps
Аудио: MP3, 2 ch, 128 Kbps, CBR

MediaInfo

Общее
Полное имя : Выстрел в степи (1990).avi
Формат : AVI
Формат/Информация : Audio Video Interleave
Размер файла : 701 Мбайт
Продолжительность : 1 ч. 5 м.
Общий поток : 1501 Кбит/сек
Программа кодирования : VirtualDubModRus 1.5.10.2 (build 2542/release)
Библиотека кодирования : VirtualDub build 32842/release
Видео
Идентификатор : 0
Формат : MPEG-4 Visual
Профиль формата : Advanced Simple@L5
Параметр BVOP формата : 2
Параметр QPel формата : Нет
Параметр GMC формата : Без точки перехода
Параметр матрицы формата : Default (H.263)
Идентификатор кодека : XVID
Идентификатор кодека/Подсказка : XviD
Продолжительность : 1 ч. 5 м.
Битрейт : 1363 Кбит/сек
Ширина : 720 пикселей
Высота : 544 пикселя
Соотношение сторон : 4:3
Частота кадров : 25,000 кадров/сек
Цветовое пространство : YUV
Субдискретизация насыщенности : 4:2:0
Битовая глубина : 8 бит
Тип развёртки : Прогрессивная
Метод сжатия : С потерями
Бит/(Пиксели*Кадры) : 0.139
Размер потока : 637 Мбайт (91%)
Библиотека кодирования : XviD 73
Аудио
Идентификатор : 1
Формат : MPEG Audio
Версия формата : Version 1
Профиль формата : Layer 3
Режим : Joint stereo
Расширение режима : MS Stereo
Идентификатор кодека : 55
Идентификатор кодека/Подсказка : MP3
Продолжительность : 1 ч. 5 м.
Вид битрейта : Постоянный
Битрейт : 128 Кбит/сек
Каналы : 2 канала
Частота : 48,0 КГц
Метод сжатия : С потерями
Размер потока : 59,8 Мбайт (9%)
Выравнивание : Разделение по промежуткам
Продолжительность промежутка : 40 мс. (1,00 видеокадр)
Время предзагрузки промежутка : 500 мс.

Скриншоты:



Показать сообщения:    

Текущее время: 27-Фев 21:27

Часовой пояс: UTC + 3


Вы не можете начинать темы
Вы не можете отвечать на сообщения
Вы не можете редактировать свои сообщения
Вы не можете удалять свои сообщения
Вы не можете голосовать в опросах
Вы не можете прикреплять файлы к сообщениям
Вы не можете скачивать файлы

!ВНИМАНИЕ!
Сайт не предоставляет электронные версии произведений, а занимается лишь коллекционированием и каталогизацией ссылок, присылаемых и публикуемых на форуме нашими читателями. Если вы являетесь правообладателем какого-либо представленного материала и не желаете, чтобы ссылка на него находилась в нашем каталоге, свяжитесь с нами, и мы незамедлительно удалим ее. Файлы для обмена на трекере предоставлены пользователями сайта, и администрация не несет ответственности за их содержание. Просьба не заливать файлы, защищенные авторскими правами, а также файлы нелегального содержания!