Статистика раздачи | Обновить пиров
Качаю
Скачал
 
   
 
 

[Цитировать]

Гражданский брак
Название: Гражданский брак
Год выпуска: 2017
Производство: Россия, Good Story Media
Жанр: Комедия
Продолжительность: 00:22:00
Субтитры: нет-Режиссёр: Дина Штурманова-В ролях: Агата Муцениеце, Денис Кукояка, Дмитрий Астрахан, Анна Легчилова, Ирина Чеснокова, Дмитрий Аверин, Михаил Грушевский (II), Стефания-Марьяна Гурская, Александр Шулико, Степан Девонин, Наталья Индейкина, Максим Литовченко, Азамат Нигманов, Толепберген Байсакалов-Описание: История о паре, которой уже поздно встречаться, но рано жениться. Тёма и Ника вместе уже больше года и, им хорошо и весело вместе. Но они легкомысленные и не слишком серьезно ко всему относятся. Они не хотят повторять жизнь своих родителей: 18 — первая работа, в 20 — свадьба, в 25 — семья и трое детей.
Но чтобы доказать родителям и себе, что они готовы к самостоятельной жизни, Тёма и Ника решают съехаться — тем более у них есть бабушкина квартира Ники. Отец Ники терпеть не может Тёму, но разрешает им пожить в этой квартире. Всё было бы прекрасно, если бы эта квартира не находилась всего на несколько этажей ниже квартиры родителей Ники. Теперь их ждут все прелести взрослой жизни: поиски работы и еды, ссоры из-за глупостей, надоедливые богатые соседи и так далее.
Сломит ли гражданский брак инфантильных и веселых Тёму и Нику? Или они научатся самостоятельной жизни и их любовь станет только крепче?
Качество: WEBRip
Формат: AVI
Видео кодек: XviD
Аудио кодек: AC3
Видео: 704х400 (16:9), 25.000 fps, XviD build 73, 1616 Kbps, 0.23 Bits/Pixel
Аудио: 48 kHz, AC3 Dolby Digital, 2 ch, 192 Kbps
Реклама: Нет

MI

General
Complete name : Downloads\Grazhdanskij.Brak.2017.XviD.WEB-DLRip.GeneralFilm\Grazhdanskij.Brak.01.avi
Format : AVI
Format/Info : Audio Video Interleave
File size : 278 MiB
Duration : 21mn 22s
Overall bit rate : 1 818 Kbps
Writing application : VirtualDubMod 1.5.10.3 | www.virtualdub-fr.org || (build 2550/release)
Writing library : VirtualDubMod build 2550/release
Video #0
ID : 0
Format : MPEG-4 Visual
Format profile : Advanced [email protected]
Format settings, BVOP : 1
Format settings, QPel : No
Format settings, GMC : No warppoints
Format settings, Matrix : Custom
Codec ID : XVID
Codec ID/Hint : XviD
Duration : 21mn 22s
Bit rate : 1 616 Kbps
Width : 704 pixels
Height : 400 pixels
Display aspect ratio : 16:9
Frame rate : 25.000 fps
Color space : YUV
Chroma subsampling : 4:2:0
Bit depth : 8 bits
Scan type : Progressive
Compression mode : Lossy
Bits/(Pixel*Frame) : 0.230
Stream size : 247 MiB (89%)
Writing library : XviD 73
Audio #1
ID : 1
Format : AC-3
Format/Info : Audio Coding 3
Mode extension : CM (complete main)
Format settings, Endianness : Big
Codec ID : 2000
Duration : 21mn 22s
Bit rate mode : Constant
Bit rate : 192 Kbps
Channel(s) : 2 channels
Channel positions : Front: L R
Sampling rate : 48.0 KHz
Bit depth : 16 bits
Compression mode : Lossy
Stream size : 29.4 MiB (11%)
Alignment : Split accross interleaves
Interleave, duration : 40 ms (1.00 video frame)
Interleave, preload duration : 500 ms

Скриншоты

Внимание! Раздача ведётся путём добавления новых серий:
(1) остановить скачивание,
(2) удалить старый торрент у себя из клиента (старые серии удалять не надо),
(3) скачать новый торрент и запустить его у себя в клиенте вместо старого, при этом указать клиенту путь в старую папку куда и должно происходить скачивание новых серий.
Ваш клиент при этом должен произвести хеширование (проверку) старой папки (если не производит сам - помогите ему сделать это), и будет докачивать только те серии которых у вас ещё нет. Старые серии при этом не удаляются, а продолжают раздаваться!
Eсли вы уже удалили старые серии, то предотвратить повторную закачку старых серий можно, отжав галочку в соответсвующих местах при запуске нового торрента. По возможности, желательно не удалять старые серии как можно дольше чтобы релизёр не столько продолжал раздавать старые серии, а смог сконцентрироваться на новых.


Показать сообщения:    

Текущее время: 17-Янв 13:55

Часовой пояс: UTC + 3


Вы не можете начинать темы
Вы не можете отвечать на сообщения
Вы не можете редактировать свои сообщения
Вы не можете удалять свои сообщения
Вы не можете голосовать в опросах
Вы не можете прикреплять файлы к сообщениям
Вы не можете скачивать файлы

!ВНИМАНИЕ!
Сайт не предоставляет электронные версии произведений, а занимается лишь коллекционированием и каталогизацией ссылок, присылаемых и публикуемых на форуме нашими читателями. Если вы являетесь правообладателем какого-либо представленного материала и не желаете, чтобы ссылка на него находилась в нашем каталоге, свяжитесь с нами, и мы незамедлительно удалим ее. Файлы для обмена на трекере предоставлены пользователями сайта, и администрация не несет ответственности за их содержание. Просьба не заливать файлы, защищенные авторскими правами, а также файлы нелегального содержания!