Статистика раздачи | Обновить пиров
Качаю
Скачал
 
   
 
 

[Цитировать]

Танго с ангелом- Название: Танго с ангелом
Год выпуска: 2009
Производство: «Новый Диск»
Жанр: Драма, детектив
Продолжительность: ~ 50 мин.-Режиссер: Николай Крутиков, Андрей Записов-В ролях: Марина Зудина, Агриппина Стеклова, Наталия Курдюбова, Юлия Майборода, Карина Разумовская, Мария Козлова (Владимирова), Анатолий Лобоцкий, Никита Салопин, Илья Барабанов, Александр Носик, Александр Арсентьев, Виталий Егоров, Владимир Стержаков, Игорь Ливанов, Леонид Громов, Кирилл Гребенщиков, Алексей Лонгин, Таис Маликов, Петр Томашевский, Наталия Симсон, Сюзанна Шпак, Павел Меленчук, Юрий Яковлев (III), Марина Николаева, Алёна Яковлева, Людмила Полякова, Светлана Тимофеева-Летуновская, Сергей Ларин, Иван Непомнящий, Людмила Свитова, Виталий Возмищев, Алексей Дьячков, Максим Клянов, Анна Ефремова, Дмитрий Прокофьев, Леся Кудряшова-Описание: История начинается с трагедии, произошедшей в современном торговом центре, упал пассажирский лифт. В аварии погибли пять человек: шестилетний мальчик Ваня, немолодой известный архитектор Владимир, журналист Сергей, биолог и ветеринарный врач Николай и молодой привлекательный парень Костя.
Горе сводит шесть незнакомых между собой женщин жён и невест погибших мужчин и мать погибшего мальчика. Помогая друг другу преодолеть утрату, героини, обладающие совершенно разными характерами и жизненным опытом, объединяются, чтобы провести собственное расследование.-Источники рипа Серии 01 - 06 , Серии 07 - 12 , Серии 13 - 18 , Серии 19 - 24-Качество: DVDRip
Формат: AVI
Видео кодек: XviD
Аудио кодек: MP3
Видео: 688x384 (1.79:1), 25 fps, XviD MPEG-4 ~1795 kbps avg, 0.27 bit/pixel
Аудио: 48 kHz, MPEG Layer 3, 2 ch, ~128.00 kbps avg-

MI

General
Complete name : \\DLINK-E826FB\Volume_2\СЕРИАЛЫ РОССИЯ\Танго с ангелом\01.avi
Format : AVI
Format/Info : Audio Video Interleave
File size : 688 MiB
Duration : 49mn 44s
Overall bit rate : 1 933 Kbps
Writing library : VirtualDub build 30009/release
Video
ID : 0
Format : MPEG-4 Visual
Format profile : Advanced [email protected]
Format settings, BVOP : 2
Format settings, QPel : No
Format settings, GMC : No warppoints
Format settings, Matrix : Custom
Muxing mode : Packed bitstream
Codec ID : DIVX
Codec ID/Info : Project Mayo
Codec ID/Hint : DivX 4
Duration : 49mn 44s
Bit rate : 1 796 Kbps
Width : 688 pixels
Height : 384 pixels
Display aspect ratio : 16:9
Frame rate : 25.000 fps
Color space : YUV
Chroma subsampling : 4:2:0
Bit depth : 8 bits
Scan type : Progressive
Compression mode : Lossy
Bits/(Pixel*Frame) : 0.272
Stream size : 639 MiB (93%)
Writing library : XviD 1.2.1 (UTC 2008-12-04)
Audio
ID : 1
Format : MPEG Audio
Format version : Version 1
Format profile : Layer 3
Mode : Joint stereo
Mode extension : MS Stereo
Codec ID : 55
Codec ID/Hint : MP3
Duration : 49mn 44s
Bit rate mode : Constant
Bit rate : 128 Kbps
Channel(s) : 2 channels
Sampling rate : 48.0 KHz
Compression mode : Lossy
Stream size : 45.5 MiB (7%)
Alignment : Split accross interleaves
Interleave, duration : 40 ms (1.00 video frame)
Interleave, preload duration : 500 ms
Writing library : LAME3.98.2


Показать сообщения:    

Текущее время: 26-Июн 20:24

Часовой пояс: UTC + 3


Вы не можете начинать темы
Вы не можете отвечать на сообщения
Вы не можете редактировать свои сообщения
Вы не можете удалять свои сообщения
Вы не можете голосовать в опросах
Вы не можете прикреплять файлы к сообщениям
Вы не можете скачивать файлы

!ВНИМАНИЕ!
Сайт не предоставляет электронные версии произведений, а занимается лишь коллекционированием и каталогизацией ссылок, присылаемых и публикуемых на форуме нашими читателями. Если вы являетесь правообладателем какого-либо представленного материала и не желаете, чтобы ссылка на него находилась в нашем каталоге, свяжитесь с нами, и мы незамедлительно удалим ее. Файлы для обмена на трекере предоставлены пользователями сайта, и администрация не несет ответственности за их содержание. Просьба не заливать файлы, защищенные авторскими правами, а также файлы нелегального содержания!