۩ ‼ Вы находитесь на Бесплатном торрент-трекере TORRNADA.com ۩ Зарегистрируйтесь для получения полного доступа ко всем функциям сайта ! ۩ После регистрации подпишитесь на нашу рассылку в своём профиле ۩
Auto Web Pinger

 

[Цитировать]

Информация о фильме
Название: Три идиота
Оригинальное название: 3 Idiots
Год выхода: 2009
Жанр: драма, комедия
Режиссер: Раджкумар Хирани
В ролях: Аамир Кхан («Rancho» Shamaldas Chanchad), Мадхаван (Farhan Qureshi), Шарман Джоши (Raju Rastogi), Карина Капур (Pia), Боман Ирани (Viru Sahastrabudhhe), Оми Вайдя (Chatur «Silencer» Ramalingam), Мона Сингх (Mona), Джавед Джеффри (Ranchoddas Shamaldas Chanchad), Парикшит Сахни (Mr. Qureshi), Оливер Лафонт (Suhas Tandon), Рахул Кумар (Millimeter - MM), Амардип Джа (Mrs. Rastogi)
О фильме: Двое друзей отправляются на поиски пропавшего приятеля. В этом путешествии им предстоит постоянно ввязываться в уже давно забытые споры, расстроить чужую свадьбу и побывать на похоронах. Их дорога проходит через опасные места. И тут начинается еще одно не совсем обычное путешествие друзей дорогами их памяти.
Они вспоминают своего приятеля, неудержимого и свободомыслящего Ранчо, который каким-то удивительным образом ворвался в их жизнь и все в ней изменил. Они вспоминают те времена, когда все они жили в студенческом общежитии. Вспоминают о том, как зарождалась любовь Ранчо к бойкой девушке Пиа и о конфликте Ранчо с его наставником, настоящим тираном Виру Сахастрабудхе. И вот однажды Ранчо вдруг исчезает... Кем он был на самом деле? Откуда он родом? Почему исчез?

Страна: Индия
Продолжительность: 02:51:07
Перевод: Профессиональный (многоголосый, закадровый); Любительский (одноголосый, закадровый)
Файл
Качество: BDRip 1080p
Формат: MKV
Видео: AVC, 1920x816 (2.35:1), 12000 kbps, 24 fps, 0,319 bpp
Аудио 1: русский / AC3 / 5.1 / 48 kHz / 448 kbps / 16 bit |MVO, BBC Saint-Petersburg, по заказу BLUEBIRD|
Аудио 2: русский / AC3 / 5.1 / 48 kHz / 448 kbps / 16 bit |VO, Zamez|
Аудио 3: Hindi / AC3 / 5.1 / 48 kHz / 448 kbps / 16 bit
Субтитры: русские, английские
Навигация по главам: Есть

ОтчетМедиаИнфо

General
Unique ID : 212056173950595439263326450001259774584 (0x9F8888957228ED10B68F127D091FC278)
Название : H:\3_Idiots(2009)BDRip1080p - R.G. HD-Films.mkv
Формат : Matroska
Формат version : Version 4 / Version 2
Размер файла : 16.0 GiB
Длительность : 2h 51mn
Общий Битрейт : 13.3 Mbps
Movie name : 3 Idiots (2009) BDRip 1080p - R.G. HD-Films
Encoded date : UTC 2015-08-01 08:19:39
Создано приложением : mkvmerge v7.9.0 ('Birds') 64bit
Writing library : libebml v1.3.1 + libmatroska v1.4.2
Attachment : Yes
Video
ID : 1
Формат : AVC
Формат/Info : Advanced Video Кодек
Формат profile : High@L4.1
Формат настройки, CABAC : Yes
Формат настройки, ReFrames : 5 frames
Кодек ID : V_MPEG4/ISO/AVC
Длительность : 2h 51mn
Битрейт : 12.0 Mbps
Width : 1 920 пикселей
Высота : 816 пикселей
Соотношение кадра : 2.35:1
Частота кадров : 24.000 fps
Цветопередача : YUV
Chroma subsampling : 4:2:0
Разрядность : 8 bits
Тип сканирования : Progressive
Bits/(Pixel*Frame) : 0.319
Размер потока : 14.0 GiB (88%)
Writing library : x264 core 146 r2538 121396c
Encoding настройки : cabac=1 / ref=5 / deblock=1:-3:-3 / analyse=0x3:0x113 / me=umh / subme=11 / psy=1 / psy_rd=1.00:0.10 / mixed_ref=1 / me_range=32 / chroma_me=1 / trellis=2 / 8x8dct=1 / cqm=0 / deadzone=21,11 / fast_pskip=0 / chroma_qp_offset=-3 / threads=6 / lookahead_threads=1 / sliced_threads=0 / nr=0 / decimate=1 / interlaced=0 / bluray_compat=0 / constrained_intra=0 / bframes=8 / b_pyramid=2 / b_adapt=2 / b_bias=0 / direct=3 / weightb=1 / open_gop=0 / weightp=2 / keyint=240 / keyint_min=24 / scenecut=40 / intra_refresh=0 / rc=2pass / mbtree=0 / bitrate=12000 / ratetol=1.0 / qcomp=0.60 / qpmin=0 / qpmax=69 / qpstep=4 / cplxblur=20.0 / qblur=0.5 / ip_ratio=1.40 / pb_ratio=1.30 / aq=1:1.00
Язык : English
Default : Yes
Forced : No
Audio #1
ID : 2
Формат : AC-3
Формат/Info : Audio Coding 3
Расширение режима : CM (complete main)
Кодек ID : A_AC3
Длительность : 2h 51mn
Битрейт mode : Constant
Битрейт : 448 Kbps
Каналы(s) : 6 каналов
Каналы positions : Front: L C R, Side: L R, LFE
Частота : 48.0 KHz
Разрядность : 16 bits
Режим сжатия : Lossy
Размер потока : 548 MiB (3%)
Title : MVO BBC Saint-Petersburg
Язык : Russian
Default : Yes
Forced : No
Audio #2
ID : 3
Формат : AC-3
Формат/Info : Audio Coding 3
Расширение режима : CM (complete main)
Кодек ID : A_AC3
Длительность : 2h 51mn
Битрейт mode : Constant
Битрейт : 448 Kbps
Каналы(s) : 6 каналов
Каналы positions : Front: L C R, Side: L R, LFE
Частота : 48.0 KHz
Разрядность : 16 bits
Режим сжатия : Lossy
Размер потока : 548 MiB (3%)
Title : VO Zamez
Язык : Russian
Default : No
Forced : No
Audio #3
ID : 4
Формат : AC-3
Формат/Info : Audio Coding 3
Расширение режима : CM (complete main)
Кодек ID : A_AC3
Длительность : 2h 51mn
Битрейт mode : Constant
Битрейт : 448 Kbps
Каналы(s) : 6 каналов
Каналы positions : Front: L C R, Side: L R, LFE
Частота : 48.0 KHz
Разрядность : 16 bits
Режим сжатия : Lossy
Размер потока : 548 MiB (3%)
Title : Original
Язык : Hindi
Default : No
Forced : No
Text #1
ID : 5
Формат : UTF-8
Кодек ID : S_TEXT/UTF8
Кодек ID/Info : UTF-8 Plain Text
Title : Full
Язык : Russian
Default : No
Forced : No
Text #2
ID : 6
Формат : UTF-8
Кодек ID : S_TEXT/UTF8
Кодек ID/Info : UTF-8 Plain Text
Title : Full
Язык : English
Default : No
Forced : No
Menu
00:00:00.000 : :Chapter 01
00:01:07.375 : :Chapter 02
00:08:23.041 : :Chapter 03
00:13:24.416 : :Chapter 04
00:18:07.666 : :Chapter 05
00:23:13.000 : :Chapter 06
00:28:49.250 : :Chapter 07
00:30:02.208 : :Chapter 08
00:31:29.041 : :Chapter 09
00:37:09.250 : :Chapter 10
00:44:34.000 : :Chapter 11
00:59:55.333 : :Chapter 12
01:06:27.500 : :Chapter 13
01:14:12.083 : :Chapter 14
01:20:47.125 : :Chapter 15
01:25:03.416 : :Chapter 16
01:28:24.833 : :Chapter 17
01:36:50.833 : :Chapter 18
01:42:58.416 : :Chapter 19
01:47:41.041 : :Chapter 20
01:52:03.000 : :Chapter 21
01:58:04.708 : :Chapter 22
02:09:01.541 : :Chapter 23
02:11:40.666 : :Chapter 24
02:18:18.625 : :Chapter 25
02:24:14.333 : :Chapter 26
02:37:46.041 : :Chapter 27

Скриншоты

Не жилим спасибо. Не забываем голосовать за трекер!!!


Показать сообщения:    

Текущее время: 22-Май 14:00

Часовой пояс: UTC + 3


Вы не можете начинать темы
Вы не можете отвечать на сообщения
Вы не можете редактировать свои сообщения
Вы не можете удалять свои сообщения
Вы не можете голосовать в опросах
Вы не можете прикреплять файлы к сообщениям
Вы не можете скачивать файлы

!ВНИМАНИЕ!
Сайт не предоставляет электронные версии произведений, а занимается лишь коллекционированием и каталогизацией ссылок, присылаемых и публикуемых на форуме нашими читателями. Если вы являетесь правообладателем какого-либо представленного материала и не желаете, чтобы ссылка на него находилась в нашем каталоге, свяжитесь с нами, и мы незамедлительно удалим ее. Файлы для обмена на трекере предоставлены пользователями сайта, и администрация не несет ответственности за их содержание. Просьба не заливать файлы, защищенные авторскими правами, а также файлы нелегального содержания!