۩ ‼ Вы находитесь на Бесплатном торрент-трекере TORRNADA.com ۩ Зарегистрируйтесь для получения полного доступа ко всем функциям сайта ! ۩ После регистрации подпишитесь на нашу рассылку в своём профиле ۩
Auto Web Pinger

 

[Цитировать]

Shonen Hollywood: Holly Stage for 50
Голливудские парни [ТВ-2]
- Жанр: повседневность, музыкальный, сёдзё
Тип: ТВ-сериал
Количество серий: 13 из 13
Продолжительность: 13 серий по 25 минут
Период выхода: с 10.01.2015 по 04.04.2015
Cтудия: ZEXCSСценарий: Хасигути ИкуёРежиссер: Куроянаги ТосимасаСсылки: World-Art | AniDB | Официальный сайт | ANN | MAL | Сетка вещания-Описание:
15 лет назад группа юных парней засверкала на сцене театра “Голливуд Токио”. Их голоса, улыбки и внешность затмили звезд и привели в восхищение весь мир. О них знали и с ними мечтали познакомиться лично абсолютно все. Но группа быстро разошлась. Юноши решили заняться одиночной карьерой и некоторое время спустя были забыты в роли “Голливудских” идолов, став примитивными одиночками.
Однако даже сейчас встречаются те, кто все еще мечтает о выступлениях той группы, желает о таком же успехе и таланте. Такими и являются пятеро юношей, что ежедневно приходят в театр “Голливуд Токио” и отдают все силы тренировкам. Однажды ребят навещает директор театра с предложением возродить забытых “Голливудских” парней. Поднять новый фурор спустя 15 лет и добиться новых высот, затмив распавшуюся группу прошлого! © ShiroLiro-Качество видео: HDTV-Rip
Битрейт видео: ~1,6 Mbps
Размер кадра: 1280x720
Аудио: ААС, 2ch, 48 KHz, 212 Kbps
Звук: Японский
Cубтитры: Русские от [YakuSub Studio]Хардсаб: Отсутствует

Media Info на первую серию

Код: General
Complete name : [Ohys-Raws] Shounen Hollywood Holly Stage for 50 - 01 (AT-X 1280x720 x264 AAC).mp4
Format : MPEG-4
Format profile : Base Media
Codec ID : isom
File size : 274 MiB
Duration : 24mn 0s
Overall bit rate mode : Variable
Overall bit rate : 1 595 Kbps
Encoded date : UTC 2015-01-10 12:07:37
Tagged date : UTC 2015-01-10 12:07:37
Video
ID : 1
Format : AVC
Format/Info : Advanced Video Codec
Format profile : Main@L4.1Format settings, CABAC : Yes
Format settings, ReFrames : 4 frames
Codec ID : avc1
Codec ID/Info : Advanced Video Coding
Duration : 24mn 0s
Bit rate : 1 380 Kbps
Maximum bit rate : 6 916 Kbps
Width : 1 280 pixels
Height : 720 pixels
Display aspect ratio : 16:9
Frame rate mode : Constant
Frame rate : 23.976 fps
Color space : YUV
Chroma subsampling : 4:2:0
Bit depth : 8 bits
Scan type : Progressive
Bits/(Pixel*Frame) : 0.062
Stream size : 237 MiB (86%)
Writing library : x264 core 144 r2525kMod 40bb568
Encoding settings : cabac=1 / ref=3 / deblock=1:0:0 / analyse=0x1:0x111 / me=hex / subme=7 / psy=1 / fade_compensate=0.00 / psy_rd=1.00:0.00 / mixed_ref=1 / me_range=16 / chroma_me=1 / trellis=1 / 8x8dct=0 / cqm=0 / deadzone=21,11 / fast_pskip=1 / chroma_qp_offset=-2 / threads=12 / lookahead_threads=2 / sliced_threads=0 / nr=0 / decimate=1 / interlaced=0 / bluray_compat=0 / constrained_intra=0 / fgo=0 / bframes=16 / b_pyramid=2 / b_adapt=1 / b_bias=0 / direct=1 / weightb=1 / open_gop=0 / weightp=2 / keyint=240 / keyint_min=1 / scenecut=40 / intra_refresh=0 / rc_lookahead=40 / rc=crf / mbtree=1 / crf=20.0000 / qcomp=0.60 / qpmin=0 / qpmax=69 / qpstep=4 / ip_ratio=1.40 / aq=1:1.00
Encoded date : UTC 2015-01-10 12:07:33
Tagged date : UTC 2015-01-10 12:07:38
Color primaries : BT.709
Transfer characteristics : BT.709
Matrix coefficients : BT.709
Color range : Limited
Audio
ID : 2
Format : AAC
Format/Info : Advanced Audio Codec
Format profile : LC
Codec ID : 40
Duration : 24mn 0s
Bit rate mode : Variable
Bit rate : 212 Kbps
Maximum bit rate : 248 Kbps
Channel(s) : 2 channels
Channel positions : Front: L R
Sampling rate : 48.0 KHz
Compression mode : Lossy
Stream size : 36.4 MiB (13%)
Encoded date : UTC 2015-01-10 11:56:10
Tagged date : UTC 2015-01-10 12:07:38

Эпизоды:

01. Forever in the Middle
02. In the Eyes of the Guardian Deity
03. A Real Handshake
04. Because I Am Your Idol
05. The Surprise Cake Was Unexpected
06. Migratory Bird Cop Special: Police Academy on the Shore Side Story
07. Prolonging Our Lives
08. Does God Speak with His Own Words?
09. Fancy Mercy Black Coffee
10. Between Right and Right
11. In This Constantly Rotating World
12. Even If There Comes a Day We Close Our Eyes
13. Holly Stage for You
Скриншоты:

Время раздачи: круглосуточно


Показать сообщения:    

Текущее время: 22-Май 11:44

Часовой пояс: UTC + 3


Вы не можете начинать темы
Вы не можете отвечать на сообщения
Вы не можете редактировать свои сообщения
Вы не можете удалять свои сообщения
Вы не можете голосовать в опросах
Вы не можете прикреплять файлы к сообщениям
Вы не можете скачивать файлы

!ВНИМАНИЕ!
Сайт не предоставляет электронные версии произведений, а занимается лишь коллекционированием и каталогизацией ссылок, присылаемых и публикуемых на форуме нашими читателями. Если вы являетесь правообладателем какого-либо представленного материала и не желаете, чтобы ссылка на него находилась в нашем каталоге, свяжитесь с нами, и мы незамедлительно удалим ее. Файлы для обмена на трекере предоставлены пользователями сайта, и администрация не несет ответственности за их содержание. Просьба не заливать файлы, защищенные авторскими правами, а также файлы нелегального содержания!