۩ ‼ Вы находитесь на Бесплатном торрент-трекере TORRNADA.com ۩ Зарегистрируйтесь для получения полного доступа ко всем функциям сайта ! ۩ После регистрации подпишитесь на нашу рассылку в своём профиле ۩
Auto Web Pinger

 

[Цитировать]

Усатый нянь (1977) DVDRip - Производство: Россия / киностудия им. Горького
Жанр: Комедия, Семейный
Режиссер: Владимир Грамматиков
Актеры: Сергей Проханов, Людмила Шагалова, Елизавета Уварова, Марина Матвеенко, Сергей Бачурский, Валерий Кисленко, Феликс Кроль, Вадим Александров, Надежда Самсонова, Александр Сажин, Валентин Брылеев, Геннадий Ялович, Ольга Григорьева, Клавдия Козленкова, Леонид Трутнев, Александра Панова, Наталья Харахорина, Артур Берзиньш, Вячеслав Субачев, дети - Максим Топпер, Олег Корхин, Андрюша Пискунов, Дима Винаров, Катя Николаи, Антон Лещинский, Аня Мищенко, Костя Левин, Дима Дашевский, Света Левина, Саша Чирва, Кристина Девитт, Марина Торчинская, Таня и Наташа Томышевы, Владик Воронченко, Володя Пучков, Алеша Банник, Сережа Клоков...
Описание:
Молодой человек, лоботряс-допризывник Кеша Четвергов после окончания школы никак не может найти себе дело по душе, не способен он надолго задержаться ни на одной работе. (Да и к чему задерживаться, если скоро в армию?) Ну не хочет Кешка превращаться во взрослого человека! И вот к его проблеме подключились общественность ЖЭКа, участковый Евсеев и заведующая детским садом Марина Борисовна, обнаружившая у Четвергова талант воспитателя. Кеша становится объектом смелого эксперимента: его берут на работу в детский сад в качестве...ночной няни. Как говорится, талант не спрячешь!
Возраст: 0+ (для любой зрительской аудитории.)
Продолжительность: 01:10:24
Качество видео: DVDRip
Видео: Xvid, 688x288 (2,40:1), 25 fps,, ~1020 kbps
Аудио: AC3, 6 ch, 448 kbps, CBR

Mediainfo:

Код:
Общее
Полное имя : Usatyy.njan.1977.DVDRip.avi
Формат : AVI
Формат/Информация : Audio Video Interleave
Размер файла : 744 Мбайт
Продолжительность : 1 ч. 10 м.
Общий поток : 1477 Кбит/сек
Программа кодирования : VirtualDubModRus 1.5.10.2 (build 2542/release)
Библиотека кодирования : VirtualDubMod build 2542/release
Видео
Идентификатор : 0
Формат : MPEG-4 Visual
Профиль формата : Advanced Simple@L5
Параметр BVOP формата : 1
Параметр QPel формата : Нет
Параметр GMC формата : Без точки перехода
Параметр матрицы формата : Выборочная
Идентификатор кодека : XVID
Идентификатор кодека/Подсказка : XviD
Продолжительность : 1 ч. 10 м.
Битрейт : 1020 Кбит/сек
Ширина : 688 пикселей
Высота : 288 пикселей
Соотношение сторон : 2,40:1
Частота кадров : 25,000 кадров/сек
Цветовое пространство : YUV
Субдискретизация насыщенности : 4:2:0
Битовая глубина : 8 бит
Тип развёртки : Прогрессивная
Метод сжатия : С потерями
Бит/(Пиксели*Кадры) : 0.206
Размер потока : 514 Мбайт (69%)
Библиотека кодирования : XviD 73
Аудио
Идентификатор : 1
Формат : AC-3
Формат/Информация : Audio Coding 3
Расширение режима : CM (complete main)
Идентификатор кодека : 2000
Продолжительность : 1 ч. 10 м.
Вид битрейта : Постоянный
Битрейт : 448 Кбит/сек
Каналы : 6 каналов
Расположение каналов : Front: L C R, Side: L R, LFE
Частота : 48,0 КГц
Битовая глубина : 16 бит
Метод сжатия : С потерями
Задержка видео : 382 мс.
Размер потока : 225 Мбайт (30%)
Выравнивание : Разделение по промежуткам
Продолжительность промежутка : 40 мс. (1,00 видеокадр)
Время предзагрузки промежутка : 500 мс
Скриншоты:


Показать сообщения:    

Текущее время: 21-Май 04:04

Часовой пояс: UTC + 3


Вы не можете начинать темы
Вы не можете отвечать на сообщения
Вы не можете редактировать свои сообщения
Вы не можете удалять свои сообщения
Вы не можете голосовать в опросах
Вы не можете прикреплять файлы к сообщениям
Вы не можете скачивать файлы

!ВНИМАНИЕ!
Сайт не предоставляет электронные версии произведений, а занимается лишь коллекционированием и каталогизацией ссылок, присылаемых и публикуемых на форуме нашими читателями. Если вы являетесь правообладателем какого-либо представленного материала и не желаете, чтобы ссылка на него находилась в нашем каталоге, свяжитесь с нами, и мы незамедлительно удалим ее. Файлы для обмена на трекере предоставлены пользователями сайта, и администрация не несет ответственности за их содержание. Просьба не заливать файлы, защищенные авторскими правами, а также файлы нелегального содержания!