۩ ‼ Вы находитесь на Бесплатном торрент-трекере TORRNADA.com ۩ Зарегистрируйтесь для получения полного доступа ко всем функциям сайта ! ۩ После регистрации подпишитесь на нашу рассылку в своём профиле ۩
Auto Web Pinger

 

[Цитировать]

Невероятные приключения итальянцев в России (1973) DVDRip - Производство: СССР, Италия / Мосфильм, Dino de Laurentiis Cinematografica, Produzioni Cinematografiche Inter. Ma. Co.
Жанр: Комедия, Приключения
Режиссер: Эльдар Рязанов
Актеры: Андрей Миронов, Нинетто Даволи, Антония Сантилли, Алигьеро Носкезе, Тано Чимароза, Джиджи Баллиста, Евгений Евстигнеев, Ольга Аросева, Лариса Виккел, Александр Лукьянов
Описание:
В одной из больниц Рима скончалась русская эмигрантка. Перед смертью пожилая дама, некогда эмигрировавшая из России, успела поведать своей внучке Ольге, что всё её огромное состояние спрятано в Ленинграде «подо львом». Это обстоятельство явилось причиной срочного старта в Ленинград всех тех, кто случайно был посвящен в эту тайну - самой В одной из римских больниц скончалась русская эмигрантка. Старая дама, некогда эмигрировавшая из России, поведала своей внучке Ольге, что все ее огромное состояние спрятано в Ленинграде «под львом». Это обстоятельство явилось причиной срочного отлета в Ленинград всех тех, кто случайно или специально был посвящен в эту тайну.
В СССР прибыли солидный врач, итальянский мафиози, два санитара, просто горожанин и внучка Ольга. А в Москве к ним присоединился еще и гид, который усложнил и так непростые поиски сокровищ…
Возраст: 12+ (зрителям, достигшим 12 лет. )
Продолжительность: 01:38:00
Качество видео: DVDRip
Cубтитры: нет
Видео: Xvid, 624x448 (1,393:1), 25 fps, ~922 kbps avg, 0.132 bit/pixel
Аудио: MP3, 2 ch, 128 kbps, CBR

Mediainfo:

Код:
Общее
Полное имя : \Neveroyatnye.priklyucheniya.italyancev.v.Rossii.1973.DVDRip-745.avi
Формат : AVI
Формат/Информация : Audio Video Interleave
Размер файла : 744 Мбайт
Продолжительность : 1 ч. 38 м.
Общий поток : 1060 Кбит/сек
Программа кодирования : VirtualDubModRus 1.5.10.2 (build 2542/release)
Библиотека кодирования : VirtualDubMod build 2542/release
Видео
Идентификатор : 0
Формат : MPEG-4 Visual
Профиль формата : Advanced Simple@L5
Параметр BVOP формата : 1
Параметр QPel формата : Нет
Параметр GMC формата : Без точки перехода
Параметр матрицы формата : Выборочная
Идентификатор кодека : XVID
Идентификатор кодека/Подсказка : XviD
Продолжительность : 1 ч. 38 м.
Битрейт : 922 Кбит/сек
Ширина : 624 пикселя
Высота : 448 пикселей
Соотношение сторон : 1,393
Частота кадров : 25,000 кадров/сек
Цветовое пространство : YUV
Субдискретизация насыщенности : 4:2:0
Битовая глубина : 8 бит
Тип развёртки : Прогрессивная
Метод сжатия : С потерями
Бит/(Пиксели*Кадры) : 0.132
Размер потока : 647 Мбайт (87%)
Библиотека кодирования : XviD 65
Аудио
Идентификатор : 1
Формат : MPEG Audio
Версия формата : Version 1
Профиль формата : Layer 3
Идентификатор кодека : 55
Идентификатор кодека/Подсказка : MP3
Продолжительность : 1 ч. 38 м.
Вид битрейта : Постоянный
Битрейт : 128 Кбит/сек
Каналы : 2 канала
Частота : 48,0 КГц
Метод сжатия : С потерями
Размер потока : 89,8 Мбайт (12%)
Выравнивание : Соединение по промежуткам
Продолжительность промежутка : 40 мс. (1,00 видеокадр)
Время предзагрузки промежутка : 504 мс.
Библиотека кодирования : L3.99r
Настройки программы : -m s -V 4 -q 2 -lowpass 17 -b 128

Дополнительная информация:

Знаете ли вы, что...
Один из львов (по кличке Кинг), принимавших участие в съемках фильма, был знаменитым воспитанником семьи Берберовых, приручивших царя зверей на своей квартире в Баку. Лев уже успел сняться в хронике, прославиться в газетных статьях, он даже стал звездой игрового кино, но «Итальянцы» стали последним фильмом «актера». В ходе московских съемок Кинга разместили на территории школы на Мосфильмовской улице. Именно туда через небольшой забор пробрался 18-летний студент Владимир Марков, догонявший свою собаку. Лев сбил молодого человека с ног и прижал к земле, несколько раз укусил студента и сильно поцарапал, была большая потеря крови и шок 1 степени. Подоспевший на место происшествия младший лейтенант милиции Гуров застрелил огромного хищника.
Сцену с посадкой Ту-134 снимали на Ульяновском аэродроме, в школе пилотов гражданской авиации, ВПП «загримировали» под шоссе. Заместитель начальника школы Иван Антонович Таращан предложил: «Возьмите письмо из Министерства гражданской авиации, в котором мне позволят летать с нарушением инструкции, и я выполню трюк». Однако в Министерстве гражданской авиации ответили категорическим отказом. Тогда пилот Таращан потребовал: «Машины — только легковые, за рулями — только летчики: в этой чрезвычайной ситуации им легче будет ориентироваться мгновенно и безошибочно». В общей сложности самолёт сажали 6 раз и каждый раз безупречно. Кадры где Ту-134 едет по шоссе, а под ним снуют автомобили снимали на резервной полосе.
Большинство трюков в автомобильной погоне выполнил итальянский каскадер, автогонщик Серджио Миони. Эпизод, когда «Москвич» и «Жигули» попадают под струю воды и грязи, становятся «слепыми» и мечутся, преследуя друг друга, выполнили советские гонщики, они же осуществили всю водительскую часть номера с пожарной машиной.

Рецензия, отзыв:

Одна из лучших советских комедий, вобравшая в себя все лучшее из советского кинематографа. Хороший юмор, многие фразы из фильма стали крылатыми. Сюжет необычен и интересен. Смотрел фильм много раз, но смотря фильм всегда весело, хорошо на душе. После просмотра этого фильма понимаешь всю прелесть, все достоинства советской комедии. Игра актеров на высоте, все роли подобраны очень хорошо. Жаль, что сегодня на телевидении редко показывают этот фильм.
10 из 10
Скриншоты:


Показать сообщения:    

Текущее время: 23-Май 06:01

Часовой пояс: UTC + 3


Вы не можете начинать темы
Вы не можете отвечать на сообщения
Вы не можете редактировать свои сообщения
Вы не можете удалять свои сообщения
Вы не можете голосовать в опросах
Вы не можете прикреплять файлы к сообщениям
Вы не можете скачивать файлы

!ВНИМАНИЕ!
Сайт не предоставляет электронные версии произведений, а занимается лишь коллекционированием и каталогизацией ссылок, присылаемых и публикуемых на форуме нашими читателями. Если вы являетесь правообладателем какого-либо представленного материала и не желаете, чтобы ссылка на него находилась в нашем каталоге, свяжитесь с нами, и мы незамедлительно удалим ее. Файлы для обмена на трекере предоставлены пользователями сайта, и администрация не несет ответственности за их содержание. Просьба не заливать файлы, защищенные авторскими правами, а также файлы нелегального содержания!