۩ ‼ Вы находитесь на Бесплатном торрент-трекере TORRNADA.com ۩ Зарегистрируйтесь для получения полного доступа ко всем функциям сайта ! ۩ После регистрации подпишитесь на нашу рассылку в своём профиле ۩
Auto Web Pinger

 

[Цитировать]

Пчёлка Майя / Maya The Bee – Movie (2014) BDRip 3D [H.264/1080p] [Вертикальная анаморфная стереопара]«Невероятно сладкая история»- Производство: Австралия, Германия / Buzz Studios, Fish Blowing Bubbles, Flying Bark Productions
Жанр: мультфильм, фэнтези, приключения.
Режиссер: Алекс Стадерманн
Продюсер: Барбара Стивен, Торстен Вегенер, Джим Бэллэнтайн
Персонажи: Коко Джек Гиллис , Нина Шаттон , Коди Смит-МакФи , Ноа Тейлор , Мириам Маргулис , Ричард Роксбург , Джеки Уивер , Джастин Кларк , Энди МакФи , Косма Шива Хаген , Нина Хаген , Константин фон Ящерофф
Описание:
Легендарная пчелка доросла до большого экрана.

Рейтинг MPAA: - нет возрастных ограничений
Дата мировой премьеры: 4 сентября 2014
Дата российской премьеры: 30 октября 2014, «UPI» 3D
Дата выхода Blu-Ray/DVD релиза: 12 марта 2015, «CP Дистрибуция», «Lizard Cinema Trade»
Продолжительность: 01:27:46
Качество: BDRip 3D [H.264/1080p]
Перевод: Дублированный (Лицензия)
Субтитры: Отсутствуют
Видео: AVC/H.264 ,1920х1080p, 16:9, 23,976 fps, 6064 Kbps, 0.122 bit/pix
Аудио: Русский AC3, 48 KHz, 5.1 ch, 640 Kbps

MediaInfo

Код: General
Unique ID : 183385919175396747736337121234202759920 (0x89F6D7E349B0B4A395406279334592F0)
Complete name : Maya The Bee – Movie.3D.mkv
Format : Matroska
Format version : Version 2
File size : 4.21 GiB
Duration : 1h 28mn
Overall bit rate : 6 840 Kbps
Encoded date : UTC 2015-01-14 13:23:39
Writing application : mkvmerge v5.8.0 ('No Sleep / Pillow') built on Sep 2 2012 15:37:04
Writing library : libebml v1.2.3 + libmatroska v1.3.0
Attachment : Yes
Video
ID : 1
Format : AVC
Format/Info : Advanced Video Codec
Format profile : High@L4.1Format settings, CABAC : Yes
Format settings, ReFrames : 4 frames
Codec ID : V_MPEG4/ISO/AVC
Duration : 1h 28mn
Bit rate : 6 064 Kbps
Width : 1 920 pixels
Height : 1 080 pixels
Display aspect ratio : 16:9
Frame rate mode : Constant
Frame rate : 23.976 fps
Color space : YUV
Chroma subsampling : 4:2:0
Bit depth : 8 bits
Scan type : Progressive
Bits/(Pixel*Frame) : 0.122
Stream size : 3.73 GiB (89%)
Writing library : x264 core 144 r2525kMod 40bb568
Encoding settings : cabac=1 / ref=4 / deblock=1:-3:-3 / analyse=0x3:0x113 / me=umh / subme=11 / psy=1 / fade_compensate=0.00 / psy_rd=1.00:0.00 / mixed_ref=1 / me_range=48 / chroma_me=1 / trellis=2 / 8x8dct=1 / cqm=0 / deadzone=21,11 / fast_pskip=1 / chroma_qp_offset=-2 / threads=12 / lookahead_threads=3 / sliced_threads=0 / nr=0 / decimate=1 / interlaced=0 / bluray_compat=0 / constrained_intra=0 / fgo=0 / bframes=16 / b_pyramid=2 / b_adapt=2 / b_bias=0 / direct=1 / weightb=1 / open_gop=0 / weightp=2 / keyint=250 / keyint_min=23 / scenecut=40 / intra_refresh=0 / rc_lookahead=40 / rc=crf / mbtree=0 / crf=17.5000 / qcomp=0.60 / qpmin=10 / qpmax=51 / qpstep=4 / vbv_maxrate=62500 / vbv_bufsize=78125 / crf_max=0.0 / nal_hrd=none / filler=0 / frame-packing=4 / ip_ratio=1.40 / pb_ratio=1.30 / aq=1:1.00
Language : English
Default : Yes
Forced : No
Audio
ID : 2
Format : AC-3
Format/Info : Audio Coding 3
Mode extension : CM (complete main)
Format settings, Endianness : Big
Codec ID : A_AC3
Duration : 1h 28mn
Bit rate mode : Constant
Bit rate : 640 Kbps
Channel count : 6 channels
Channel positions : Front: L C R, Side: L R, LFE
Sampling rate : 48.0 KHz
Bit depth : 16 bits
Compression mode : Lossy
Stream size : 404 MiB (9%)
Language : Russian
Default : Yes
Forced : No
Скриншоты:
Не жилим спасибо. Не забываем голосовать за трекер!!!


Показать сообщения:    

Текущее время: 24-Май 08:26

Часовой пояс: UTC + 3


Вы не можете начинать темы
Вы не можете отвечать на сообщения
Вы не можете редактировать свои сообщения
Вы не можете удалять свои сообщения
Вы не можете голосовать в опросах
Вы не можете прикреплять файлы к сообщениям
Вы не можете скачивать файлы

!ВНИМАНИЕ!
Сайт не предоставляет электронные версии произведений, а занимается лишь коллекционированием и каталогизацией ссылок, присылаемых и публикуемых на форуме нашими читателями. Если вы являетесь правообладателем какого-либо представленного материала и не желаете, чтобы ссылка на него находилась в нашем каталоге, свяжитесь с нами, и мы незамедлительно удалим ее. Файлы для обмена на трекере предоставлены пользователями сайта, и администрация не несет ответственности за их содержание. Просьба не заливать файлы, защищенные авторскими правами, а также файлы нелегального содержания!