۩ ‼ Вы находитесь на Бесплатном торрент-трекере TORRNADA.com ۩ Зарегистрируйтесь для получения полного доступа ко всем функциям сайта ! ۩ После регистрации подпишитесь на нашу рассылку в своём профиле ۩
Auto Web Pinger

 

[Цитировать]

Резня зомби 2: Рейх мёртвых / Zombie Massacre 2: Reich of the Dead (2015) HDRip - Производство: Канада, Италия
Жанр: Ужасы, Военный
Режиссер: Люка Бони, Марко Ристори
Продюсер: Уве Болл, Бенжамен Кротен, Люка Бони
Актеры: Эндрю Миллс, Дэн ван Хузен, Айк Стилстра, Элли МакКлелланд, Майкл Сигал, Люси Драйв, Дэвид Уайт, Эудженио Казини, Джузеппе Нитти, Дезире Джорджетти
Описание:
Вторая мировая война. История о группе американских солдат, воюющих против орды зомби, созданных нацистами из узников лагерей. У них только одна ночь, чтобы спасти свою собственную жизнь, но враг все сильнее и сильнее…

Дата мировой премьеры: 8 июня 2015
Продолжительность: 01:24:25
Качество видео: HDRip
Перевод: Одноголосый закадровый, любительский
Озвучка / Автор перевода: Васька Куролесов
Вид субтитров: Отсутствуют
Видео: Xvid, 720x304, ~1728 kb/s
Аудио 1 : AC3, 192 Кбит/сек, 2 ch - русский
Аудио 2 : AC3, 384 Кбит/сек, 6 ch - английский
Семпл: Скачать

Mediainfo:

Код:
Общее
Полное имя : D:\KINO 3\CORCTED\Reznya.Zombi2.Reih.Myortvih.avi
Формат : AVI
Формат/Информация : Audio Video Interleave
Размер файла : 1,37 Гбайт
Продолжительность : 1 ч. 24 м.
Общий поток : 2318 Кбит/сек
Программа кодирования : VirtualDubMod 1.5.10.3 | www.virtualdub-fr.org || (build 2550/release)
Библиотека кодирования : VirtualDubMod build 2550/release
Видео
Идентификатор : 0
Формат : MPEG-4 Visual
Профиль формата : Advanced Simple@L5
Параметр BVOP формата : 2
Параметр QPel формата : Нет
Параметр GMC формата : Без точки перехода
Параметр матрицы формата : Default (MPEG)
Идентификатор кодека : XVID
Идентификатор кодека/Подсказка : XviD
Продолжительность : 1 ч. 24 м.
Битрейт : 1728 Кбит/сек
Ширина : 720 пикселей
Высота : 304 пикселя
Соотношение сторон : 2,35:1
Частота кадров : 23,976 кадра/сек
Цветовое пространство : YUV
Субдискретизация насыщенности : 4:2:0
Битовая глубина : 8 бит
Тип развёртки : Прогрессивная
Метод сжатия : С потерями
Бит/(Пиксели*Кадры) : 0.329
Размер потока : 1,02 Гбайт (75%)
Библиотека кодирования : XviD 1.2.1 (UTC 2008-12-04)
Аудио #1
Идентификатор : 1
Формат : AC-3
Формат/Информация : Audio Coding 3
Расширение режима : CM (complete main)
Параметр Endianness формата : Big
Идентификатор кодека : 2000
Продолжительность : 1 ч. 24 м.
Вид битрейта : Постоянный
Битрейт : 192 Кбит/сек
Каналы : 2 канала
Расположение каналов : Front: L R
Частота : 48,0 КГц
Битовая глубина : 16 бит
Метод сжатия : С потерями
Размер потока : 116 Мбайт (8%)
Выравнивание : Разделение по промежуткам
Продолжительность промежутка : 42 мс. (1,00 видеокадр)
Время предзагрузки промежутка : 500 мс.
Аудио #2
Идентификатор : 2
Формат : AC-3
Формат/Информация : Audio Coding 3
Расширение режима : CM (complete main)
Параметр Endianness формата : Big
Идентификатор кодека : 2000
Продолжительность : 1 ч. 24 м.
Вид битрейта : Постоянный
Битрейт : 384 Кбит/сек
Каналы : 6 каналов
Расположение каналов : Front: L C R, Side: L R, LFE
Частота : 48,0 КГц
Битовая глубина : 16 бит
Метод сжатия : С потерями
Размер потока : 232 Мбайт (17%)
Выравнивание : Разделение по промежуткам
Продолжительность промежутка : 42 мс. (1,00 видеокадр)
Время предзагрузки промежутка : 500 мс.
Скриншоты:
Время раздачи: С 09:00 до 23:30 до 5 скачавших

[Цитировать]

Бредятина, а не кино. Мало того, что спекулирует на давно заезженной как в кино, так и в игровой индустрии (Call of Duty, к примеру) теме зомби, так еще и очень отвратно это делает, ничего не поясняя: ни откуда берутся главные герои, ни зачем что-либо делают. Плохо загримированные под зомби актеры, сами плохие актеры не придают фильму ни капельки шарма. Это даже не трэш, как в фильме с девушкой нога-пулемет ("Планета Страха", привет). Бесполезное кино.


Показать сообщения:    

Текущее время: 24-Май 13:56

Часовой пояс: UTC + 3


Вы не можете начинать темы
Вы не можете отвечать на сообщения
Вы не можете редактировать свои сообщения
Вы не можете удалять свои сообщения
Вы не можете голосовать в опросах
Вы не можете прикреплять файлы к сообщениям
Вы не можете скачивать файлы

!ВНИМАНИЕ!
Сайт не предоставляет электронные версии произведений, а занимается лишь коллекционированием и каталогизацией ссылок, присылаемых и публикуемых на форуме нашими читателями. Если вы являетесь правообладателем какого-либо представленного материала и не желаете, чтобы ссылка на него находилась в нашем каталоге, свяжитесь с нами, и мы незамедлительно удалим ее. Файлы для обмена на трекере предоставлены пользователями сайта, и администрация не несет ответственности за их содержание. Просьба не заливать файлы, защищенные авторскими правами, а также файлы нелегального содержания!