۩ ‼ Вы находитесь на Бесплатном торрент-трекере TORRNADA.com ۩ Зарегистрируйтесь для получения полного доступа ко всем функциям сайта ! ۩ После регистрации подпишитесь на нашу рассылку в своём профиле ۩
Auto Web Pinger

 

[Цитировать]

Название: Энигма
Оригинальное название: Enigma
Год выпуска: 2001
Страна: Великобритания, США, Германия, Нидерланды
Жанр: триллер, драма, мелодрама, детектив, военный
Продолжительность: 01:58:51
Перевод: дублированный, профессиональный многоголосый
Режиссёр: Майкл Эптид
В ролях: Дугрей Скотт, Том Холландер, Джереми Нортэм, Дональд Самптер, Кейт Уинслет, Мэттью Макфейден, Ричард Лиф, Николай Костер-Валдау, Саффрон Берроуз, Богдан Порай, Эдвард Вудалл, Пол Рэттрэй, Ричард Кац, Том Фишер, Роберт Пью, Корин Редгрейв, Николас Роу, Мэри МакЛауд, Майкл Тротон, Эдвард Хардуик, Энн-Мэри Дафф, Тим Бентинк, Рози Томсон, Эмма Баккли, Мирьям Де Руйи, Адриан Притер, Хайвел
Описание: В марте 1943 года британская разведка узнаёт, что уже не может читать секретные германские донесения, так как нацисты кардинально усовершенствовали свою шифровальную машину «Энигма», превратив боевые коды в гигантскую головоломку. На её разгадку могут уйти годы, но в распоряжении гениального математика Тома Джерико всего четыре дня! Вскоре Тому становится известно, что его любовницу и коллегу Клэр подозревают в связях с нацистами. Более того, она бесследно исчезла. Не веря в безумные обвинения, молодой учёный начинает тайное расследование, не догадываясь, какой опасности он подвергает свою жизнь. Счёт идёт на минуты, и теперь Том обязан разгадать две сложнейшие загадки. Ведь только от него зависит жизнь его возлюбленной и миллионов борцов с фашизмом, которым противостоит электронный мозг безжалостной «Энигмы». По мотивам романа Роберта Харриса.

Качество: BDRip AVC Сравнение с исходником
Формат: MKV
Видео: MPEG-4 AVC, 2065 Кбит/с, 1024x436, 23,976 кадра/с
Аудио 1: русский, AC3, 448 kbps, 6 ch, 48 kHz [дублированный]
Аудио 2: русский, AC3, 384 kbps, 6 ch, 48 kHz [профессиональный многоголосый, R5]
Аудио 3: английский, AC3, 448 kbps, 6 ch, 48 kHz [оригинал]

Инфо-файл

Общее
Уникальный идентификатор : 183573427020431146147004607880989339708 (0x8A1AF4BD0592C1EAAB73BB38EA35703C)
Полное имя : D:VideoЭнигма.2001.BDRip.AVC.mkv
Формат : Matroska
Версия формата : Version 4 / Version 2
Размер файла : 2,83 Гбайт
Продолжительность : 1 ч. 58 м.
Общий поток : 3412 Кбит/сек
Название фильма : BDRip -- STarankov
Дата кодирования : UTC 2015-07-29 09:39:19
Программа кодирования : mkvmerge v8.2.0 ('World of Adventure') 64bit
Библиотека кодирования : libebml v1.3.1 + libmatroska v1.4.2
DURATION : 01:58:51.744000000
NUMBER_OF_FRAMES : 222867
NUMBER_OF_BYTES : 399377664
_STATISTICS_WRITING_APP : mkvmerge v8.2.0 ('World of Adventure') 64bit
_STATISTICS_WRITING_DATE_UTC : 2015-07-29 09:39:19
_STATISTICS_TAGS : BPS DURATION NUMBER_OF_FRAMES NUMBER_OF_BYTES
Видео
Идентификатор : 1
Формат : AVC
Формат/Информация : Advanced Video Codec
Профиль формата : High@L4.1
Параметр CABAC формата : Да
Параметр ReFrames формата : 9 кадров
Идентификатор кодека : V_MPEG4/ISO/AVC
Продолжительность : 1 ч. 58 м.
Битрейт : 2065 Кбит/сек
Ширина : 1024 пикселя
Высота : 436 пикселей
Соотношение сторон : 2,35:1
Режим частоты кадров : Постоянный
Частота кадров : 23,976 кадра/сек
Цветовое пространство : YUV
Субдискретизация насыщенности : 4:2:0
Битовая глубина : 8 бит
Тип развёртки : Прогрессивная
Бит/(Пиксели*Кадры) : 0.193
Размер потока : 1,71 Гбайт (61%)
Библиотека кодирования : x264 core 146 r2538 121396c
Настройки программы : cabac=1 / ref=9 / deblock=1:-1:-1 / analyse=0x3:0x113 / me=umh / subme=10 / psy=1 / psy_rd=1.00:0.15 / mixed_ref=1 / me_range=32 / chroma_me=1 / trellis=2 / 8x8dct=1 / cqm=0 / deadzone=21,11 / fast_pskip=1 / chroma_qp_offset=-3 / threads=6 / lookahead_threads=1 / sliced_threads=0 / nr=0 / decimate=1 / interlaced=0 / bluray_compat=0 / constrained_intra=0 / bframes=8 / b_pyramid=2 / b_adapt=2 / b_bias=0 / direct=1 / weightb=1 / open_gop=0 / weightp=2 / keyint=230 / keyint_min=23 / scenecut=40 / intra_refresh=0 / rc_lookahead=40 / rc=crf / mbtree=0 / crf=19.0 / qcomp=0.60 / qpmin=0 / qpmax=69 / qpstep=4 / vbv_maxrate=40000 / vbv_bufsize=50000 / crf_max=0.0 / nal_hrd=none / filler=0 / ip_ratio=1.40 / pb_ratio=1.30 / aq=1:1.00
Язык : English
Default : Да
Forced : Нет
DURATION : 01:58:51.708000000
NUMBER_OF_FRAMES : 170990
NUMBER_OF_BYTES : 1899017318
_STATISTICS_WRITING_APP : mkvmerge v8.2.0 ('World of Adventure') 64bit
_STATISTICS_WRITING_DATE_UTC : 2015-07-29 09:39:19
_STATISTICS_TAGS : BPS DURATION NUMBER_OF_FRAMES NUMBER_OF_BYTES
Аудио #1
Идентификатор : 2
Формат : AC-3
Формат/Информация : Audio Coding 3
Расширение режима : CM (complete main)
Параметр Endianness формата : Big
Идентификатор кодека : A_AC3
Продолжительность : 1 ч. 58 м.
Вид битрейта : Постоянный
Битрейт : 448 Кбит/сек
Каналы : 6 каналов
Расположение каналов : Front: L C R, Side: L R, LFE
Частота : 48,0 КГц
Метод сжатия : С потерями
Размер потока : 381 Мбайт (13%)
Заголовок : DUB
Язык : Russian
Default : Да
Forced : Нет
Аудио #2
Идентификатор : 3
Формат : AC-3
Формат/Информация : Audio Coding 3
Расширение режима : CM (complete main)
Параметр Endianness формата : Big
Идентификатор кодека : A_AC3
Продолжительность : 1 ч. 58 м.
Вид битрейта : Постоянный
Битрейт : 384 Кбит/сек
Каналы : 6 каналов
Расположение каналов : Front: L C R, Side: L R, LFE
Частота : 48,0 КГц
Метод сжатия : С потерями
Размер потока : 326 Мбайт (11%)
Заголовок : MVO (R5)
Язык : Russian
Default : Нет
Forced : Нет
Аудио #3
Идентификатор : 4
Формат : AC-3
Формат/Информация : Audio Coding 3
Расширение режима : CM (complete main)
Параметр Endianness формата : Big
Идентификатор кодека : A_AC3
Продолжительность : 1 ч. 58 м.
Вид битрейта : Постоянный
Битрейт : 448 Кбит/сек
Каналы : 6 каналов
Расположение каналов : Front: L C R, Side: L R, LFE
Частота : 48,0 КГц
Метод сжатия : С потерями
Размер потока : 381 Мбайт (13%)
Заголовок : Original
Язык : English
Default : Нет
Forced : Нет

Скриншоты



Показать сообщения:    

Текущее время: 24-Май 14:06

Часовой пояс: UTC + 3


Вы не можете начинать темы
Вы не можете отвечать на сообщения
Вы не можете редактировать свои сообщения
Вы не можете удалять свои сообщения
Вы не можете голосовать в опросах
Вы не можете прикреплять файлы к сообщениям
Вы не можете скачивать файлы

!ВНИМАНИЕ!
Сайт не предоставляет электронные версии произведений, а занимается лишь коллекционированием и каталогизацией ссылок, присылаемых и публикуемых на форуме нашими читателями. Если вы являетесь правообладателем какого-либо представленного материала и не желаете, чтобы ссылка на него находилась в нашем каталоге, свяжитесь с нами, и мы незамедлительно удалим ее. Файлы для обмена на трекере предоставлены пользователями сайта, и администрация не несет ответственности за их содержание. Просьба не заливать файлы, защищенные авторскими правами, а также файлы нелегального содержания!