۩ ‼ Вы находитесь на Бесплатном торрент-трекере TORRNADA.com ۩ Зарегистрируйтесь для получения полного доступа ко всем функциям сайта ! ۩ После регистрации подпишитесь на нашу рассылку в своём профиле ۩
Auto Web Pinger

 

[Цитировать]

Опять 18! / 18 Again! (1988) DVDRip [H.264]
«His mind was 81. His body was 18. When Jack Watson found his fountain of youth, it overflowed with comedy»
- Производство: США / New World Entertainment Films
Жанр: Комедия, Фэнтези
Режиссер: Пол Флаэрти
Актеры: Джордж Бёрнс, Чарли Шлаттер, Тони Робертс, Анита Морри, Мириам Флинн, Ред Баттонс, Джордж ДиЧенцо, Бернард Фокс, Кеннет Тайгар
Описание:
Дэвиду - 18 лет, а его деду Джеку только что исполнился 81 год. У Дэвида проблемы со спортивными зачетами, потому что он увлекается рисованием и прочими искусствами. Дед в его возрасте был классным бегуном, но стал суперпрактичным бизнесменом и главой преуспевающей фирмы. Дэвид рядом с девушками крайне застенчив, а дед и на девятом десятке запросто склеит любую встречную молодуху. Тем не менее старик Джек, имеющий все и всех, жалеет только об одном - о том, что ему не восемнадцать лет. И однажды его мечта сбывается! В результате автомобильной катастрофы тело деда оказывается в реанимации, а душа его временно находит себе иное пристанище - в теле внука. И жизнь резко меняется для обоих...

Возраст: 0+ (для любой зрительской аудитории)
Рейтинг MPAA: R (рекомендуется присутствие родителей)

Продолжительность: 01:40:09
Качество видео: DVDRip
Перевод: Одноголосый закадровый
Субтитры: нет
Навигация по главам: есть
Видео: AVC/H.264, 718x464@850x464 (16:9), ~1684 kbps
Аудио 1: Русский AC3 2.0, 48 kHz, 192 kbps AVO - А. Михалев
Аудио 2: Английский AC3 2.0, 48 kHz, 192 kbps - original

Mediainfo:

Общее
Уникальный идентификатор                 : 230206885118387813495040091987113337191 (0xAD303BBC8588809FAF0A1EC069B6E167)
Полное имя                               : \Snova.18.DVDRipAVC.mkv
Формат                                   : Matroska
Версия формата                           : Version 2
Размер файла                             : 1,45 Гбайт
Продолжительность                        : 1 ч. 40 м.
Общий поток                              : 2070 Кбит/сек
Название фильма                          : = Опять 18! / 18 Again! DVDRip by SC Kosmos =
Дата кодирования                         : UTC 2013-01-02 14:27:44
Программа кодирования                    : mkvmerge v3.3.0 ('Language') gebaut am Mar 24 2010 14:59:24
Библиотека кодирования                   : libebml v0.8.0 + libmatroska v0.9.0
Видео
Идентификатор                            : 1
Формат                                   : AVC
Формат/Информация                        : Advanced Video Codec
Профиль формата                          : High@L4.1
Параметр CABAC формата                   : Да
Параметр ReFrames формата                : 12 кадров
Идентификатор кодека                     : V_MPEG4/ISO/AVC
Продолжительность                        : 1 ч. 40 м.
Битрейт                                  : 1684 Кбит/сек
Ширина                                   : 718 пикселей
Высота                                   : 464 пикселя
Соотношение сторон                       : 1,85:1
Соотношение сторон в оригинале           : 1,85:1
Режим частоты кадров                     : Постоянный
Частота кадров                           : 23,976 кадра/сек
Цветовое пространство                    : YUV
Субдискретизация насыщенности            : 4:2:0
Битовая глубина                          : 8 бит
Тип развёртки                            : Прогрессивная
Бит/(Пиксели*Кадры)                      : 0.211
Размер потока                            : 1,15 Гбайт (79%)
Заголовок                                : Опять 18! / 18 Again! DVDRip by SC Kosmos
Библиотека кодирования                   : x264 core 129 r2230 1cffe9f
Настройки программы                      : cabac=1 / ref=12 / deblock=1:-2:-3 / analyse=0x3:0x112 / me=umh / subme=11 / psy=1 / psy_rd=1.00:0.15 / mixed_ref=1 / me_range=32 / chroma_me=1 / trellis=2 / 8x8dct=1 / cqm=0 / deadzone=21,11 / fast_pskip=1 / chroma_qp_offset=-3 / threads=12 / lookahead_threads=2 / sliced_threads=0 / nr=0 / decimate=1 / interlaced=0 / bluray_compat=0 / constrained_intra=0 / bframes=10 / b_pyramid=2 / b_adapt=1 / b_bias=0 / direct=3 / weightb=1 / open_gop=0 / weightp=1 / keyint=230 / keyint_min=23 / scenecut=40 / intra_refresh=0 / rc=2pass / mbtree=0 / bitrate=1684 / ratetol=1.0 / qcomp=0.60 / qpmin=0 / qpmax=69 / qpstep=4 / cplxblur=20.0 / qblur=0.5 / ip_ratio=1.40 / pb_ratio=1.30 / aq=1:1.00 / zones=140458,144076,b=0.3
Язык                                     : English
Default                                  : Нет
Forced                                   : Нет
Основные цвета                           : BT.601 PAL
Характеристики трансфера                 : BT.470 System B, BT.470 System G
Коэффициенты матрицы                     : BT.601
Аудио #1
Идентификатор                            : 2
Формат                                   : AC-3
Формат/Информация                        : Audio Coding 3
Профиль формата                          : Dolby Digital
Расширение режима                        : CM (complete main)
Параметр Endianness формата              : Big
Идентификатор кодека                     : A_AC3
Продолжительность                        : 1 ч. 40 м.
Вид битрейта                             : Постоянный
Битрейт                                  : 192 Кбит/сек
Каналы                                   : 2 канала
Расположение каналов                     : Front: L R
Частота                                  : 48,0 КГц
Битовая глубина                          : 16 бит
Метод сжатия                             : С потерями
Размер потока                            : 138 Мбайт (9%)
Заголовок                                : AVO [Михалёв]
Язык                                     : Russian
Default                                  : Да
Forced                                   : Нет
Аудио #2
Идентификатор                            : 3
Формат                                   : AC-3
Формат/Информация                        : Audio Coding 3
Расширение режима                        : CM (complete main)
Параметр Endianness формата              : Big
Идентификатор кодека                     : A_AC3
Продолжительность                        : 1 ч. 40 м.
Вид битрейта                             : Постоянный
Битрейт                                  : 192 Кбит/сек
Каналы                                   : 2 канала
Расположение каналов                     : Front: L R
Частота                                  : 48,0 КГц
Битовая глубина                          : 16 бит
Метод сжатия                             : С потерями
Размер потока                            : 138 Мбайт (9%)
Язык                                     : English
Default                                  : Нет
Forced                                   : Нет
Меню
00:00:00.000                             : en:Chapter 01
00:03:56.000                             : en:Chapter 02
00:07:26.500                             : en:Chapter 03
00:12:58.867                             : en:Chapter 04
00:18:56.601                             : en:Chapter 05
00:22:23.101                             : en:Chapter 06
00:26:20.601                             : en:Chapter 07
00:29:14.835                             : en:Chapter 08
00:33:36.835                             : en:Chapter 09
00:37:56.169                             : en:Chapter 10
00:41:44.169                             : en:Chapter 11
00:46:48.836                             : en:Chapter 12
00:49:59.836                             : en:Chapter 13
00:54:31.836                             : en:Chapter 14
01:00:23.003                             : en:Chapter 15
01:05:07.003                             : en:Chapter 16
01:10:18.670                             : en:Chapter 17
01:15:09.004                             : en:Chapter 18
01:17:42.504                             : en:Chapter 19
01:23:19.504                             : en:Chapter 20
01:27:20.671                             : en:Chapter 21
01:29:53.171                             : en:Chapter 22
01:34:16.338                             : en:Chapter 23
01:36:57.738                             : en:Chapter 24

Рецензия, отзыв:

Классическое воспевание неугасающей любви к жизни.
Этот фильм запомнился для меня ещё когда я посмотрел его в раннем школьном детстве. За последние три года, вспомнив, несколько раз его пересматривал. Лучший саундтрек! Лучший сценарий! Идеально подобранные актёры для своих ролей! Больше всего я люблю этот фильм за харизму Джэка.
Кстати, обратите внимание: сходство с Китом Ричардсом, такие же формы лица, рост небольшой, уши врастопырку, поведение такое же джентльменское, пиратское и крутое умение быть простым и, тем не менее, неповторимым. Завлекать девушек, дамочек разного возраста своим острым словцом. Ричардс в жизни и персонаж Барнса в этом фильме — как один человек практически.
Девчонка Дэвида — принцесса на все времена (делаю оговорочку насчёт подборки актёров). Это практически безусловно классический фильм. И действительно, что ещё хотелось бы вам в 81 год, кроме как чтобы снова стало 18?
Скриншоты:
Не жилим спасибо. Не забываем голосовать за трекер!!!


Показать сообщения:    

Текущее время: 22-Май 13:48

Часовой пояс: UTC + 3


Вы не можете начинать темы
Вы не можете отвечать на сообщения
Вы не можете редактировать свои сообщения
Вы не можете удалять свои сообщения
Вы не можете голосовать в опросах
Вы не можете прикреплять файлы к сообщениям
Вы не можете скачивать файлы

!ВНИМАНИЕ!
Сайт не предоставляет электронные версии произведений, а занимается лишь коллекционированием и каталогизацией ссылок, присылаемых и публикуемых на форуме нашими читателями. Если вы являетесь правообладателем какого-либо представленного материала и не желаете, чтобы ссылка на него находилась в нашем каталоге, свяжитесь с нами, и мы незамедлительно удалим ее. Файлы для обмена на трекере предоставлены пользователями сайта, и администрация не несет ответственности за их содержание. Просьба не заливать файлы, защищенные авторскими правами, а также файлы нелегального содержания!