۩ ‼ Вы находитесь на Бесплатном торрент-трекере TORRNADA.com ۩ Зарегистрируйтесь для получения полного доступа ко всем функциям сайта ! ۩ После регистрации подпишитесь на нашу рассылку в своём профиле ۩
Auto Web Pinger

 

[Цитировать]

Остров / The Island
Страна: США
Год выпуска: 2005
Жанр: фантастика, боевик, триллер, приключения
Продолжительность: 02:16:04
Перевод: Профессиональный (полное дублирование) Blu-ray CEE
Режиссер: Майкл Бэй / Michael Bay
Актеры: Юэн МакГрегор, Скарлетт Йоханссон, Джимон Хонсу, Шон Бин, Стив Бушеми, Майкл Кларк Дункан, Итэн Филлипс, Брайан Степанек, Ноа Тишби, Шиван Флинн
Описание фильма: Линкольн Шесть-Эхо — житель на вид утопического, но охраняемого поселения середины XXI века. Как и все обитатели этого тщательно контролируемого пространства, Линкольн надеется оказаться среди тех, кого отправят на «Остров» — якобы последнее незагрязненное место на планете. Но очень скоро Линкольн обнаруживает, что абсолютно всё, что касается его существования — ложь.

Файл
Качество видео: BDRip 720p Исходник: Blu-ray
Формат: MKV Видео кодек: MPEG-4 AVC Аудио кодек: AC3
Видео: AVC, 1280x534 (2.40:1) at 23.976 fps, AVC at 10.0 Mbps avg, 0.611 bit/pixel
Аудио: Russian: 48 kHz, AC3, 3/2 (L,C,R,l,r) + LFE ch, ~640.00 kbps avg
Субтитры: Русские, английские
Навигация по главам: Есть
Автор рипа:

MediaInfo

The Island.2005.720p.BluRay.x264-LEONARDO_[scarabey.org].mkv
Format : Matroska
Format version : Version 2
File size : 10.3 GiB
Duration : 2h 16mn
Overall bit rate : 10.9 Mbps
Movie name : Release by Leonardo for Scarabey.org
Writing application : mkvmerge v5.0.1 ('Es ist Sommer') built on Oct 23 2011 00:46:40
Writing library : libebml v1.2.2 + libmatroska v1.3.0
Attachment : Yes
Video
ID : 1
Format : AVC
Format/Info : Advanced Video Codec
Format profile : High@L4.1
Format settings, CABAC : Yes
Format settings, ReFrames : 8 frames
Codec ID : V_MPEG4/ISO/AVC
Duration : 2h 16mn
Bit rate : 10.0 Mbps
Width : 1 280 pixels
Height : 534 pixels
Display aspect ratio : 2.40:1
Frame rate : 23.976 fps
Color space : YUV
Chroma subsampling : 4:2:0
Bit depth : 8 bits
Scan type : Progressive
Bits/(Pixel*Frame) : 0.611
Stream size : 9.51 GiB (92%)
Writing library : x264 core 125 r2208 d9d2288
Encoding settings : cabac=1 / ref=8 / deblock=1:-3:-3 / analyse=0x3:0x133 / me=umh / subme=11 / psy=1 / psy_rd=1.00:0.00 / mixed_ref=1 / me_range=32 / chroma_me=1 / trellis=2 / 8x8dct=1 / cqm=0 / deadzone=21,11 / fast_pskip=0 / chroma_qp_offset=-2 / threads=12 / lookahead_threads=2 / sliced_threads=0 / nr=0 / decimate=1 / interlaced=0 / bluray_compat=0 / constrained_intra=0 / bframes=8 / b_pyramid=2 / b_adapt=2 / b_bias=0 / direct=1 / weightb=1 / open_gop=0 / weightp=2 / keyint=250 / keyint_min=23 / scenecut=40 / intra_refresh=0 / rc=crf / mbtree=0 / crf=19.0 / qcomp=0.60 / qpmin=0 / qpmax=69 / qpstep=4 / ip_ratio=1.10 / pb_ratio=1.10 / aq=1:1.00
Language : English
Default : Yes
Forced : No
Audio
ID : 2
Format : AC-3
Format/Info : Audio Coding 3
Mode extension : CM (complete main)
Codec ID : A_AC3
Duration : 2h 16mn
Bit rate mode : Constant
Bit rate : 640 Kbps
Channel(s) : 6 channels
Channel positions : Front: L C R, Side: L R, LFE
Sampling rate : 48.0 KHz
Bit depth : 16 bits
Compression mode : Lossy
Stream size : 623 MiB (6%)
Title : AC3 5.1ch 640 kbps - ??????, Blu-ray CEE
Language : Russian
Default : Yes
Forced : No
Text #1
ID : 3
Format : UTF-8
Codec ID : S_TEXT/UTF8
Codec ID/Info : UTF-8 Plain Text
Language : Russian
Default : No
Forced : No
Text #2
ID : 4
Format : UTF-8
Codec ID : S_TEXT/UTF8
Codec ID/Info : UTF-8 Plain Text
Title : Forced
Language : Russian
Default : Yes
Forced : No
Text #3
ID : 5
Format : UTF-8
Codec ID : S_TEXT/UTF8
Codec ID/Info : UTF-8 Plain Text
Title : SDH
Language : English
Default : No
Forced : No
Text #4
ID : 6
Format : UTF-8
Codec ID : S_TEXT/UTF8
Codec ID/Info : UTF-8 Plain Text
Language : English
Default : No
Forced : No
Menu
00:00:00.000 : :1. The Lottery
00:10:36.594 : :2. Tranquility Center
00:16:36.829 : :3. Back To Work
00:20:32.606 : :4. Tech Services
00:27:17.761 : :5. Nightlife
00:32:15.391 : :6. On The Loose
00:41:35.993 : :7. Contamination Alert
00:50:43.290 : :8. Albert Laurent
00:56:33.390 : :9. Aces & Spades
01:05:39.226 : :10. Train Station
01:11:58.939 : :11. Information Directory
01:18:32.207 : :12. Tough Day
01:28:36.436 : :13. Your Insurance Policy
01:34:40.925 : :14. Thought I Was Taller
01:40:26.729 : :15. Worth Every Penny
01:46:44.564 : :16. Recall
01:53:10.325 : :17. Too Bad
01:58:47.995 : :18. A Disturbance
02:03:24.063 : :19. My Name Is Lincoln
02:09:53.744 : :20. End Credits

Полноразмерные скриншоты



Показать сообщения:    

Текущее время: 24-Май 08:35

Часовой пояс: UTC + 3


Вы не можете начинать темы
Вы не можете отвечать на сообщения
Вы не можете редактировать свои сообщения
Вы не можете удалять свои сообщения
Вы не можете голосовать в опросах
Вы не можете прикреплять файлы к сообщениям
Вы не можете скачивать файлы

!ВНИМАНИЕ!
Сайт не предоставляет электронные версии произведений, а занимается лишь коллекционированием и каталогизацией ссылок, присылаемых и публикуемых на форуме нашими читателями. Если вы являетесь правообладателем какого-либо представленного материала и не желаете, чтобы ссылка на него находилась в нашем каталоге, свяжитесь с нами, и мы незамедлительно удалим ее. Файлы для обмена на трекере предоставлены пользователями сайта, и администрация не несет ответственности за их содержание. Просьба не заливать файлы, защищенные авторскими правами, а также файлы нелегального содержания!