۩ ‼ Вы находитесь на Бесплатном торрент-трекере TORRNADA.com ۩ Зарегистрируйтесь для получения полного доступа ко всем функциям сайта ! ۩ После регистрации подпишитесь на нашу рассылку в своём профиле ۩
Auto Web Pinger

 

[Цитировать]

Информация о фильме
Название: Искатель воды
Оригинальное название: The Water Diviner
Год выпуска: 2014
Жанр: Драма, военный
Режиссер: Расселл Кроу
В ролях: Расселл Кроу, Джай Кортни, Ольга Куриленко, Изабель Лукас, Дэймон Херриман, Жаклин МакКензи, Джем Йылмаз, Йылмаз Эрдоган, Меган Гэйл, Райан Корр
О фильме:
Действие фильма разворачивается в 1919 году. Это история об австралийце, который отправляется на полуостров Галлиполи, где во время Первой мировой войны проходила ожесточенная битва, чтобы разыскать тела своих погибших сыновей. И неожиданно для себя он обретает надежду там, где и не мыслил ее найти.

Страна: Австралия, Турция, США
Студия: Fear of God Films, Hopscotch Features
Продолжительность: 01:51:10
Перевод: Дублированный [iTunes]
Файл
Файл
Кодек: х264
Качество: НDRip-AVC
Видео: 1024x426(2,40:1), 24,000 fps, x264 ~1684 kbps avg, 0.161 bit/pixel
Аудио: 48.0 kHz, AC3, 2 ch, 192 Kbps
Субтитры: Русские, Английские (Вшитые, отключаемые / UTF-8)

MI

Общее
Уникальный идентификатор : 235482260735822037715385448674604059590 (0xB1283BD5E17D0CF4B0FE0932C0578BC6)
Полное имя : D:ВидеоThe.Water.Diviner.2014.НDRip(AVC) by Vovan366(ExKinoRay)..mkv
Формат : Matroska
Версия формата : Version 4 / Version 2
Размер файла : 1,46 Гбайт
Продолжительность : 1 ч. 51 м.
Общий поток : 1877 Кбит/сек
Название фильма : The.Water.Diviner.2014.НDRip(AVC) by Vovan366(ExKinoRay)
Дата кодирования : UTC 2015-07-29 04:10:44
Программа кодирования : mkvmerge v8.2.0 ('World of Adventure') 64bit
Библиотека кодирования : libebml v1.3.1 + libmatroska v1.4.2
DURATION : 01:44:54.624000000
NUMBER_OF_FRAMES : 967
NUMBER_OF_BYTES : 51622
_STATISTICS_WRITING_APP : mkvmerge v8.2.0 ('World of Adventure') 64bit
_STATISTICS_WRITING_DATE_UTC : 2015-07-29 04:10:44
_STATISTICS_TAGS : BPS DURATION NUMBER_OF_FRAMES NUMBER_OF_BYTES
Видео
Идентификатор : 1
Формат : AVC
Формат/Информация : Advanced Video Codec
Профиль формата : High@L4.1
Параметр CABAC формата : Да
Параметр ReFrames формата : 9 кадров
Идентификатор кодека : V_MPEG4/ISO/AVC
Продолжительность : 1 ч. 51 м.
Битрейт : 1684 Кбит/сек
Ширина : 1024 пикселя
Высота : 426 пикселей
Соотношение сторон : 2,40:1
Режим частоты кадров : Постоянный
Частота кадров : 24,000 кадра/сек
Цветовое пространство : YUV
Субдискретизация насыщенности : 4:2:0
Битовая глубина : 8 бит
Тип развёртки : Прогрессивная
Бит/(Пиксели*Кадры) : 0.161
Размер потока : 1,28 Гбайт (88%)
Заголовок : by Vovan366(ExKinoRay)
Библиотека кодирования : x264 core 130 r2273 b3065e6
Настройки программы : cabac=1 / ref=9 / deblock=1:-3:-3 / analyse=0x3:0x113 / me=umh / subme=10 / psy=1 / psy_rd=1.00:0.15 / mixed_ref=1 / me_range=32 / chroma_me=1 / trellis=2 / 8x8dct=1 / cqm=0 / deadzone=21,11 / fast_pskip=1 / chroma_qp_offset=-3 / threads=6 / lookahead_threads=1 / sliced_threads=0 / nr=0 / decimate=0 / interlaced=0 / bluray_compat=0 / constrained_intra=0 / bframes=9 / b_pyramid=2 / b_adapt=2 / b_bias=0 / direct=3 / weightb=1 / open_gop=0 / weightp=2 / keyint=240 / keyint_min=23 / scenecut=40 / intra_refresh=0 / rc=2pass / mbtree=0 / bitrate=1684 / ratetol=1.0 / qcomp=0.60 / qpmin=0 / qpmax=69 / qpstep=4 / cplxblur=20.0 / qblur=0.5 / ip_ratio=1.40 / pb_ratio=1.30 / aq=1:1.00
Default : Да
Forced : Нет
Аудио
Идентификатор : 2
Формат : AC-3
Формат/Информация : Audio Coding 3
Расширение режима : CM (complete main)
Параметр Endianness формата : Big
Идентификатор кодека : A_AC3
Продолжительность : 1 ч. 51 м.
Вид битрейта : Постоянный
Битрейт : 192 Кбит/сек
Каналы : 2 канала
Расположение каналов : Front: L R
Частота : 48,0 КГц
Битовая глубина : 16 бит
Метод сжатия : С потерями
Размер потока : 153 Мбайт (10%)
Язык : Russian
Default : Да
Forced : Нет
Текст #1
Идентификатор : 3
Формат : UTF-8
Идентификатор кодека : S_TEXT/UTF8
Идентификатор кодека/Информация : UTF-8 Plain Text
Язык : Russian
Default : Нет
Forced : Нет
Текст #2
Идентификатор : 4
Формат : UTF-8
Идентификатор кодека : S_TEXT/UTF8
Идентификатор кодека/Информация : UTF-8 Plain Text
Заголовок : English
Язык : English
Default : Нет
Forced : Нет
Текст #3
Идентификатор : 5
Формат : UTF-8
Идентификатор кодека : S_TEXT/UTF8
Идентификатор кодека/Информация : UTF-8 Plain Text
Заголовок : English (SDH)
Язык : English
Default : Нет
Forced : Нет
Меню
00:00:00.000 : en:00:00:00.000
00:05:15.500 : en:00:05:15.500
00:09:00.208 : en:00:09:00.208
00:13:08.208 : en:00:13:08.208
00:16:47.708 : en:00:16:47.708
00:21:29.000 : en:00:21:29.000
00:26:53.167 : en:00:26:53.167
00:31:16.208 : en:00:31:16.208
00:36:21.458 : en:00:36:21.458
00:40:11.875 : en:00:40:11.875
00:50:31.625 : en:00:50:31.625
00:57:19.958 : en:00:57:19.958
01:03:33.458 : en:01:03:33.458
01:07:55.792 : en:01:07:55.792
01:15:38.292 : en:01:15:38.292
01:19:05.250 : en:01:19:05.250
01:23:31.458 : en:01:23:31.458
01:30:25.292 : en:01:30:25.292
01:40:02.375 : en:01:40:02.375
01:45:05.000 : en:01:45:05.000

Скриншоты



Показать сообщения:    

Текущее время: 21-Май 11:39

Часовой пояс: UTC + 3


Вы не можете начинать темы
Вы не можете отвечать на сообщения
Вы не можете редактировать свои сообщения
Вы не можете удалять свои сообщения
Вы не можете голосовать в опросах
Вы не можете прикреплять файлы к сообщениям
Вы не можете скачивать файлы

!ВНИМАНИЕ!
Сайт не предоставляет электронные версии произведений, а занимается лишь коллекционированием и каталогизацией ссылок, присылаемых и публикуемых на форуме нашими читателями. Если вы являетесь правообладателем какого-либо представленного материала и не желаете, чтобы ссылка на него находилась в нашем каталоге, свяжитесь с нами, и мы незамедлительно удалим ее. Файлы для обмена на трекере предоставлены пользователями сайта, и администрация не несет ответственности за их содержание. Просьба не заливать файлы, защищенные авторскими правами, а также файлы нелегального содержания!