۩ ‼ Вы находитесь на Бесплатном торрент-трекере TORRNADA.com ۩ Зарегистрируйтесь для получения полного доступа ко всем функциям сайта ! ۩ После регистрации подпишитесь на нашу рассылку в своём профиле ۩
Auto Web Pinger

 

[Цитировать]

Перевод: Не требуется, cубтитры: отсутствуют
Формат: DVD5, DVD Video, MPEG2, AC3
Страна: СССР
Режиссер: Борис Тузанович, Вадим Меджибовский, Натан Лернер, Анатолий Резников, Лидия Сурикова, Владимир Самсонов, Инна Воробьёва, Кирилл Малянтович
Жанр: мультфильм, кукольный, рисованный
Продолжительность: 01:31:03
Год выпуска: 1973-1991
Описание: Сборник любимых отечественных мультипликационных фильмов для детей.

Видео: 720x576 (4:3), 25,000 fps, MPEG 2 Video ~ 5 091kbps avg, 0.491bit/pixel
Аудио: 48.0 kHz, AC3, (Front: L R) , 2 ch ~192Kbps avg

Mediainfo

General
Complete name : E:\DOWNLOADS\Zemjanichniy.dojdik.Sbornik.multfilmov.DVD5\VIDEO_TS\VTS_03_1.VOB
Format : MPEG-PS
File size : 244 MiB
Duration : 6mn 19s
Overall bit rate mode : Variable
Overall bit rate : 5 390 Kbps
Video
ID : 224 (0xE0)
Format : MPEG Video
Format version : Version 2
Format profile : Main@Main
Format settings, BVOP : Yes
Format settings, Matrix : Default
Format settings, GOP : M=3, N=15
Format settings, picture st : Frame
Duration : 6mn 19s
Bit rate mode : Variable
Bit rate : 5 091 Kbps
Maximum bit rate : 9 000 Kbps
Width : 720 pixels
Height : 576 pixels
Display aspect ratio : 4:3
Frame rate : 25.000 fps
Standard : PAL
Color space : YUV
Chroma subsampling : 4:2:0
Bit depth : 8 bits
Scan type : Interlaced
Scan order : Bottom Field First
Compression mode : Lossy
Bits/(Pixel*Frame) : 0.491
Time code of first frame : 00:00:00:00
Time code source : Group of pictures header
GOP, Open/Closed : Open
Stream size : 230 MiB (94%)
GOP, Open/Closed of first f : Closed
Audio
ID : 189 (0xBD)-128 (0x80)
Format : AC-3
Format/Info : Audio Coding 3
Mode extension : CM (complete main)
Format settings, Endianness : Big
Muxing mode : DVD-Video
Duration : 6mn 19s
Bit rate mode : Constant
Bit rate : 192 Kbps
Channel(s) : 2 channels
Channel positions : Front: L R
Sampling rate : 48.0 KHz
Bit depth : 16 bits
Compression mode : Lossy
Stream size : 8.69 MiB (4%)
MenuЗакрыть

Содержание

01. Сказка о старом эхо - 1989 г. Маленький Лисенок открывает для себя мир, а заодно, проявляет отзывчивость, храбрость и любознательность. В сказке о Старом Эхе он знакомится с Эхом, о чем рассказывает своему папе Лису, который вспоминает, что когда-то и он дружил с Эхом…
02. Земляничный дождик - 1989 г. Однажды лисенок встретил ежика, который рассказал, что от самого обычного дождика хорошо растут грибы. Лисенок задумался: "А бывает ли земляничный дождик?" И он отправляется на его поиски....
03. Мотылёк - 1991 г. Папа Лис рассказывает Лисенку о том, что в детстве случайно погубил мотылька. Чтобы спасти его, маленький Лисенок и папа решают вернуться в прошлое...
04. Умная собачка Соня - 1991 г. О забавной собачке Соне, которая, попадая в сложные ситуации, делала для себя поучительные выводы.
05. В зоопарке-ремонт - 1987 г. Зоопарк закрылся на ремонт и смешные ситуации возникают с животными, которых разобрали жители.
06. Автомобиль с хвостиком - 1973 г. Муравьишка и черепаха развозят посылки и письма.
07. Гори, гори ясно - 1983 г. Мультипликационный фильм, в основе которого русские народные детские песенки. Использованы потешки и считалочки детского поэта Валентина Берестова.
08. Самолётик - 1978 г. О дружбе большого и маленького самолетов.
09. Ослик - 1990 г. Об ослике, который не умел считать.
10. Топчумба - 1980 г. Мультипликационный фильм по мотивам сказки Бориса Заходера, о неуклюжем медвеженке, который с помощью утренней гимнастики избавился от своей неуклюжести.Закрыть

скриншот меню


Закрыть

Показать скриншоты





Закрыть
Не жилим спасибо. Не забываем голосовать за трекер!!!


Показать сообщения:    

Текущее время: 24-Май 08:52

Часовой пояс: UTC + 3


Вы не можете начинать темы
Вы не можете отвечать на сообщения
Вы не можете редактировать свои сообщения
Вы не можете удалять свои сообщения
Вы не можете голосовать в опросах
Вы не можете прикреплять файлы к сообщениям
Вы не можете скачивать файлы

!ВНИМАНИЕ!
Сайт не предоставляет электронные версии произведений, а занимается лишь коллекционированием и каталогизацией ссылок, присылаемых и публикуемых на форуме нашими читателями. Если вы являетесь правообладателем какого-либо представленного материала и не желаете, чтобы ссылка на него находилась в нашем каталоге, свяжитесь с нами, и мы незамедлительно удалим ее. Файлы для обмена на трекере предоставлены пользователями сайта, и администрация не несет ответственности за их содержание. Просьба не заливать файлы, защищенные авторскими правами, а также файлы нелегального содержания!