۩ ‼ Вы находитесь на Бесплатном торрент-трекере TORRNADA.com ۩ Зарегистрируйтесь для получения полного доступа ко всем функциям сайта ! ۩ После регистрации подпишитесь на нашу рассылку в своём профиле ۩
Auto Web Pinger

 

[Цитировать]

Мир, созданный без изъяна / The World Made Straight (2015) HDRip- Производство: США / Bifrost Pictures, Dreambridge Films, Myriad Pictures
Жанр: драма
Режиссер: Дэвид Буррис
Продюсер: Дэвид Буррис, Тодд Дж. Лабаровски, Майкл Ренн
Актеры: Ноа Уайли, Джереми Ирвин, Минка Келли, Эделейд Клеменс, Стив Эрл, Хэйли Джоэл Осмент, Маркус Хестер, Колин Деннард, Алекс Ван, Робин Маллинз
Описание:
Трэвис – молодой юноша, который в один из летних дней решает совершить прогулку в лес. Он попадает на частную территорию, располагающуюся рядом с его домом в Северной Каролине. Здесь он обнаруживает огромную плантацию марихуаны и попадает в медвежий капкан.
Пробыв несколько часов в таком состоянии, он все же был спасен местным фермером, который является владельцем делянки. Но после такой прогулки герой уже не способен с уравновешенностью относиться к порокам, полностью овладевшим сельским маленьким сообществом.
Вскоре молодому парню приходится покинуть дом и поселиться в трейлере у преподавателя Леонардо. Он пристрастился к употреблению наркотиков и чтению журналов о гражданской войне в Соединенных Штатах. Судьбы этих двоих переплетаются в тот момент, когда болезненное настоящее и страшное прошлое вызывает переполох в городе...

Рейтинг MPAA: R - Детям до 17 лет обязательно присутствие родителей
Дата мировой премьеры: 9 января 2015
Продолжительность: 01:59:22
Качество: HDRip
Перевод: профессиональный (многоголосый закадровый)
Субтитры: отсутствуют
Видео: XviD, 720x304 (2,35:1), 1 251 kbps, 23.976 fps, 0.238 b/px
Аудио: АС3, 2 ch, 384 kbps, 48 000 Hz - MVO

MediaInfo

Общее
Полное имя                               : F:\The World Made Straight (2015) HDRip.avi
Формат                                   : AVI
Формат/Информация                        : Audio Video Interleave
Размер файла                             : 1,37 Гбайт
Продолжительность                        : 1 ч. 59 м.
Общий поток                              : 1644 Кбит/сек
Название фильма                          : The World Made Straight (2015)
Программа кодирования                    : VirtualDubMod 1.5.10.2 (build 2540/release)
Библиотека кодирования                   : VirtualDubMod build 2540/release
Авторское право                          : Hazer @ playXD
Примечание                               : Enjoy!
Видео
Идентификатор                            : 0
Формат                                   : MPEG-4 Visual
Профиль формата                          : Advanced Simple@L5
Параметр BVOP формата                    : 3
Параметр QPel формата                    : Да
Параметр GMC формата                     : Без точки перехода
Параметр матрицы формата                 : Выборочная
Идентификатор кодека                     : XVID
Идентификатор кодека/Подсказка           : XviD
Продолжительность                        : 1 ч. 59 м.
Битрейт                                  : 1251 Кбит/сек
Ширина                                   : 720 пикселей
Высота                                   : 304 пикселя
Соотношение сторон                       : 2,35:1
Частота кадров                           : 23,976 кадра/сек
Цветовое пространство                    : YUV
Субдискретизация насыщенности            : 4:2:0
Битовая глубина                          : 8 бит
Тип развёртки                            : Прогрессивная
Метод сжатия                             : С потерями
Бит/(Пиксели*Кадры)                      : 0.238
Размер потока                            : 1,04 Гбайт (76%)
Библиотека кодирования                   : XviD 1.2.1 (UTC 2008-12-04)
Аудио
Идентификатор                            : 1
Формат                                   : AC-3
Формат/Информация                        : Audio Coding 3
Расширение режима                        : CM (complete main)
Параметр Endianness формата              : Big
Идентификатор кодека                     : 2000
Продолжительность                        : 1 ч. 59 м.
Вид битрейта                             : Постоянный
Битрейт                                  : 384 Кбит/сек
Каналы                                   : 2 канала
Расположение каналов                     : Front: L R
Частота                                  : 48,0 КГц
Метод сжатия                             : С потерями
Размер потока                            : 328 Мбайт (23%)
Выравнивание                             : Разделение по промежуткам
Продолжительность промежутка             : 42  мс. (1,00 видеокадр)
Время предзагрузки промежутка            : 500  мс.
Язык                                     : Undefined
Скриншоты:
Не жилим спасибо. Не забываем голосовать за трекер!!!

[Цитировать]

Очередное кино про молоденького наркомана и "пороки общества". Откровенно слабенький сюжет, актерская игра, звуковая составляющая не позволяю фильму с каким бы то ни было глубоким смыслом осесть в сознании зрителя. Так и получилось с "Миром, созданным без изъяна". Непонятна мотивация главного героя, проникнувшемуся уважением и любовью к своему давно умершему родственнику времен гражданской войны. Вообще ничего не понятно, и это огромный минус для фильма.


Показать сообщения:    

Текущее время: 21-Май 09:37

Часовой пояс: UTC + 3


Вы не можете начинать темы
Вы не можете отвечать на сообщения
Вы не можете редактировать свои сообщения
Вы не можете удалять свои сообщения
Вы не можете голосовать в опросах
Вы не можете прикреплять файлы к сообщениям
Вы не можете скачивать файлы

!ВНИМАНИЕ!
Сайт не предоставляет электронные версии произведений, а занимается лишь коллекционированием и каталогизацией ссылок, присылаемых и публикуемых на форуме нашими читателями. Если вы являетесь правообладателем какого-либо представленного материала и не желаете, чтобы ссылка на него находилась в нашем каталоге, свяжитесь с нами, и мы незамедлительно удалим ее. Файлы для обмена на трекере предоставлены пользователями сайта, и администрация не несет ответственности за их содержание. Просьба не заливать файлы, защищенные авторскими правами, а также файлы нелегального содержания!