۩ ‼ Вы находитесь на Бесплатном торрент-трекере TORRNADA.com ۩ Зарегистрируйтесь для получения полного доступа ко всем функциям сайта ! ۩ После регистрации подпишитесь на нашу рассылку в своём профиле ۩
Auto Web Pinger

 

[Цитировать]

Самый-Самый (2015) WEB-DLRip - Телекомпания: НКС Медиа по заказу Техно 24
Жанр: Документальный
Описание:
Сразу два проекта «Техно 24» отдаст военной и гражданской технике. Программа «Самый-самый» посвящена выдающимся достижениям техники, а спецпроект «Полигон» - вооружению современной Российской армии. Так, в ближайших выпусках передачи «Самый-самый» авторы расскажут о самом большом десантном корабле на воздушной подушке и о самом мощном самолете в истории военной авиации. А съемочная группа «Полигона» отправится в автономное плавание на ракетном подводном крейсере стратегического назначения, расскажет о первом испытательном пуске новейшей ракеты-носителя «Ангара» и побывает в волгоградских степях полигона Прудбой, чтобы узнать, на что способен основной боевой танк Российской армии Т-90. Большой... Мощный... Быстрый... Точный... Скорострельный... Уникальный... Надежный... Дальний. Все о рекордсменах российского оружия и боевой техники. Интересные факты и комментарии экспертов о самых выдающихся образцах оборонно-промышленного комплекса России.
Продолжительность: 12 х ~ 00:25:00
Качество видео: WEB-DLRip
Видео: AVC/H.264, 1920x1080, ~2 567 Kbps
Аудио: MP3, 2 ch, 128 Kbps

Mediainfo:

General
        Format : Matroska
      Format version : Version 2
      File size : 257 MiB
      Duration : 13mn 20s
      Overall bit rate : 2 697 Kbps
      Encoded date : UTC 2015-03-15 15:03:56
      Writing application : mkvmerge v6.1.0 ('Old Devil') built on Mar  4 2013 09:10:42
      Writing library : libebml v1.3.0 + libmatroska v1.4.0
   Video #1
      ID : 1
      Format : AVC
      Format/Info : Advanced Video Codec
      Format profile : High@L5.0
      Format settings, CABAC : Yes
      Format settings, ReFrames : 8 frames
      Codec ID : V_MPEG4/ISO/AVC
      Duration : 13mn 20s
      Bit rate : 2 567 Kbps
      Width : 1 920 pixels
      Height : 1 080 pixels
      Display aspect ratio : 16:9
      Frame rate mode : Constant
      Frame rate : 25.000 fps
      Color space : YUV
      Chroma subsampling : 4:2:0
      Bit depth : 8 bits
      Scan type : Progressive
      Bits/(Pixel*Frame) : 0.050
      Stream size : 240 MiB (93%)
      Writing library : x264 core 130 r2273 b3065e6
      Encoding settings : cabac=1 / ref=8 / deblock=1:-1:-1 / analyse=0x3:0x133 / me=umh / subme=7 / psy=1 / psy_rd=1.00:0.10 / mixed_ref=1 / me_range=16 / chroma_me=1 / trellis=2 / 8x8dct=1 / cqm=0 / deadzone=21,11 / fast_pskip=0 / chroma_qp_offset=-3 / threads=6 / lookahead_threads=1 / sliced_threads=0 / nr=0 / decimate=1 / interlaced=0 / bluray_compat=0 / constrained_intra=0 / bframes=3 / b_pyramid=2 / b_adapt=2 / b_bias=0 / direct=3 / weightb=1 / open_gop=0 / weightp=2 / keyint=250 / keyint_min=25 / scenecut=40 / intra_refresh=0 / rc_lookahead=50 / rc=2pass / mbtree=1 / bitrate=2567 / ratetol=1.0 / qcomp=0.60 / qpmin=0 / qpmax=69 / qpstep=4 / cplxblur=20.0 / qblur=0.5 / ip_ratio=1.40 / aq=1:1.00
      Default : Yes
      Forced : No
   Audio #2
      ID : 2
      Format : MPEG Audio
      Format version : Version 1
      Format profile : Layer 3
      Codec ID : A_MPEG/L3
      Codec ID/Hint : MP3
      Duration : 13mn 20s
      Bit rate mode : Constant
      Bit rate : 128 Kbps
      Channel(s) : 2 channels
      Sampling rate : 44.1 KHz
      Compression mode : Lossy
      Stream size : 12.2 MiB (5%)
      Writing library : LAME3.99r
      Encoding settings : -m s -V 4 -q 2 -lowpass 17 -b 128
      Default : Yes
      Forced : No

Внимание! Раздача ведётся путём добавления новых серий:

Внимание! Раздача ведётся путём добавления новых серий; при каждом добавлении создаётся новый торрент.
Чтобы начать докачку новой серии, пользователям необходимо сделать следующее:
1. Остановить скачивание;
2. Удалить старый торрент у себя из клиента (старые серии удалять не надо);
3. Скачать новый торрент и запустить его у себя в клиенте вместо старого, при этом указать клиенту путь в старую папку куда и должно происходить скачивание новых серий. Ваш клиент при этом должен произвести хеширование (проверку) старой папки и будет докачивать только те серии, которых у вас ещё нет. Старые серии при этом не удаляются, а продолжают раздаваться! Eсли вы уже удалили старые серии, то предотвратить повторную закачку старых серий можно, отжав галочку в соответствующих местах при запуске нового торрента.

Список серий:

1 выпуск - Самолёт Ту-95 МС
2 выпуск - Десантный корабль "Зубр"
3 выпуск - ЗРПК "Панцирь-С"
4 выпуск - Танк Т-72
5 выпуск - Самоходное орудие "Нона"
6 выпуск - Самолёт Як-130
7 выпуск - БМПТ-72 "Терминатор"
8 выпуск - Пушка 2А36 "Гиацинт-Б"
9 выпуск - Самолёт Су-34
10 выпуск - КРК "Ангара"
11 выпуск - Танк Т-90
12 выпуск - Ил-76
Скриншоты:
Не жилим спасибо. Не забываем голосовать за трекер!!!


Показать сообщения:    

Текущее время: 24-Май 09:54

Часовой пояс: UTC + 3


Вы не можете начинать темы
Вы не можете отвечать на сообщения
Вы не можете редактировать свои сообщения
Вы не можете удалять свои сообщения
Вы не можете голосовать в опросах
Вы не можете прикреплять файлы к сообщениям
Вы не можете скачивать файлы

!ВНИМАНИЕ!
Сайт не предоставляет электронные версии произведений, а занимается лишь коллекционированием и каталогизацией ссылок, присылаемых и публикуемых на форуме нашими читателями. Если вы являетесь правообладателем какого-либо представленного материала и не желаете, чтобы ссылка на него находилась в нашем каталоге, свяжитесь с нами, и мы незамедлительно удалим ее. Файлы для обмена на трекере предоставлены пользователями сайта, и администрация не несет ответственности за их содержание. Просьба не заливать файлы, защищенные авторскими правами, а также файлы нелегального содержания!