۩ ‼ Вы находитесь на Бесплатном торрент-трекере TORRNADA.com ۩ Зарегистрируйтесь для получения полного доступа ко всем функциям сайта ! ۩ После регистрации подпишитесь на нашу рассылку в своём профиле ۩
Auto Web Pinger

 

[Цитировать]

NG: Последние львы / The Last Lions (2011) BDRip [H.264/720p] «The most powerful force in nature is a mother's love»- Производство: США, Ботсвана
Жанр: Документальный, семейный
Режиссер: Дерек Жубер
Актеры: Джереми Айронс
Описание:
Львы мудрые и сильные животные по праву считаются царями природы. Так и было до недавнего времени… Человеческий эгоизм, неукротимая жажда развития поставила этот вид кошачьих на грань вымирания. Те особи, что остались в дикой природе, находятся под пристальным вниманием как защитников природы, так и алчных браконьеров. Ведь на черном рынке шкура льва стоит невероятно большие суммы. И находятся те люди, которые истребляют и без того вымирающий вид. Документальная лента «Последние львы» говорит сама за себя: этот фильм полностью посвящен жизни львов, проблемам, которые связаны с выживанием вида и возможными способами спасения величественных животных…

Рейтинг МРАА: PG рекомендуется присутствие родителей
Релиз от: HDCLUB
Продолжительность: 01:29:10
Качество: BDRip (720p)
Перевод: Одноголосый закадровый, А.Дасевич
Вид субтитров: Вшитые отключаемые
Язык субтитров: Английский
Формат: MKV
Видео: AVC/H.264, 1280x720, ~7339 kbps
Аудио#1: Russian: 48 kHz, DTS, 6 ch, ~1509.00 kbps avg |Одноголосый закадровый, А.Дасевич|
Аудио#2: English: 48 kHz, DTS, 6 ch, ~1509.00 kbps avg

MediaInfo:

Общее
Уникальный идентификатор                 : 181511661110374072334452173614981215236 (0x888DDFD4AACCCBEE883AA9FEF93A7404)
Полное имя                               : C:\\The.Last.Lions.2011.720p.BDRip.mkv
Формат                                   : Matroska
Версия формата                           : Version 2
Размер файла                             : 6,58 Гбайт
Продолжительность                        : 1 ч. 29 м.
Общий поток                              : 10,6 Мбит/сек
Название фильма                          : The Last Lions (2011)
Дата кодирования                         : UTC 2012-04-30 22:04:04
Программа кодирования                    : mkvmerge v3.4.0 ('Rapunzel') built on May 15 2010 09:38:20
Библиотека кодирования                   : libebml v0.8.0 + libmatroska v0.9.0
Видео
Идентификатор                            : 1
Формат                                   : AVC
Формат/Информация                        : Advanced Video Codec
Профиль формата                          : High@L4.1
Параметр CABAC формата                   : Да
Параметр ReFrames формата                : 8 кадров
Идентификатор кодека                     : V_MPEG4/ISO/AVC
Продолжительность                        : 1 ч. 29 м.
Битрейт                                  : 7339 Кбит/сек
Ширина                                   : 1280 пикселей
Высота                                   : 720 пикселей
Соотношение сторон                       : 16:9
Режим частоты кадров                     : Постоянный
Частота кадров                           : 23,976 кадра/сек
Цветовое пространство                    : YUV
Субдискретизация насыщенности            : 4:2:0
Битовая глубина                          : 8 бит
Тип развёртки                            : Прогрессивная
Бит/(Пиксели*Кадры)                      : 0.332
Размер потока                            : 4,57 Гбайт (69%)
Заголовок                                : The Last Lions (2011)
Язык                                     : English
Default                                  : Нет
Forced                                   : Нет
Цветовой диапазон                        : Limited
Коэффициенты матрицы                     : BT.709
Аудио #1
Идентификатор                            : 2
Формат                                   : DTS
Формат/Информация                        : Digital Theater Systems
Режим                                    : 16
Параметр Endianness формата              : Big
Идентификатор кодека                     : A_DTS
Продолжительность                        : 1 ч. 29 м.
Вид битрейта                             : Постоянный
Битрейт                                  : 1509 Кбит/сек
Каналы                                   : 6 каналов
Расположение каналов                     : Front: L C R, Side: L R, LFE
Частота                                  : 48,0 КГц
Битовая глубина                          : 24 бит
Метод сжатия                             : С потерями
Задержка видео                           : 7 мс.
Размер потока                            : 963 Мбайт (14%)
Заголовок                                : DTS 5.1 @ 1536 kbps - Одноголосый закадровый, А.Дасевич
Язык                                     : Russian
Default                                  : Да
Forced                                   : Нет
Аудио #2
Идентификатор                            : 3
Формат                                   : DTS
Формат/Информация                        : Digital Theater Systems
Режим                                    : 16
Параметр Endianness формата              : Big
Идентификатор кодека                     : A_DTS
Продолжительность                        : 1 ч. 29 м.
Вид битрейта                             : Постоянный
Битрейт                                  : 1509 Кбит/сек
Каналы                                   : 6 каналов
Расположение каналов                     : Front: L C R, Side: L R, LFE
Частота                                  : 48,0 КГц
Битовая глубина                          : 24 бит
Метод сжатия                             : С потерями
Задержка видео                           : 7 мс.
Размер потока                            : 963 Мбайт (14%)
Заголовок                                : DTS 5.1 @ 1536 kbps - Одноголосый закадровый, А.Дасевич
Язык                                     : English
Default                                  : Нет
Forced                                   : Нет
Текст
Идентификатор                            : 4
Формат                                   : UTF-8
Идентификатор кодека                     : S_TEXT/UTF8
Идентификатор кодека/Информация          : UTF-8 Plain Text
Язык                                     : English
Default                                  : Нет
Forced                                   : Нет
Меню
00:00:00.000                             : en:00:00:00.000
00:09:37.577                             : en:00:10:07.607
00:19:09.523                             : en:00:19:39.553
00:28:10.063                             : en:00:28:40.093
00:38:02.655                             : en:00:38:32.685
00:49:42.354                             : en:00:50:12.384
01:00:07.979                             : en:01:00:38.009
01:07:29.420                             : en:01:07:59.450
01:16:32.963                             : en:01:17:02.993
01:23:22.372                             : en:01:23:52.402

Соотношение сторон экрана:

Доп.скриншоты:


Скриншоты: Не жилим спасибо. Не забываем голосовать за трекер!!!


Показать сообщения:    

Текущее время: 21-Май 11:54

Часовой пояс: UTC + 3


Вы не можете начинать темы
Вы не можете отвечать на сообщения
Вы не можете редактировать свои сообщения
Вы не можете удалять свои сообщения
Вы не можете голосовать в опросах
Вы не можете прикреплять файлы к сообщениям
Вы не можете скачивать файлы

!ВНИМАНИЕ!
Сайт не предоставляет электронные версии произведений, а занимается лишь коллекционированием и каталогизацией ссылок, присылаемых и публикуемых на форуме нашими читателями. Если вы являетесь правообладателем какого-либо представленного материала и не желаете, чтобы ссылка на него находилась в нашем каталоге, свяжитесь с нами, и мы незамедлительно удалим ее. Файлы для обмена на трекере предоставлены пользователями сайта, и администрация не несет ответственности за их содержание. Просьба не заливать файлы, защищенные авторскими правами, а также файлы нелегального содержания!