۩ ‼ Вы находитесь на Бесплатном торрент-трекере TORRNADA.com ۩ Зарегистрируйтесь для получения полного доступа ко всем функциям сайта ! ۩ После регистрации подпишитесь на нашу рассылку в своём профиле ۩
Auto Web Pinger

 

[Цитировать]

По прозвищу «Зверь» (1990) DVDRip [H.264]- Производство: Россия, киностудия "Мосфильм"
Жанр: Боевик, Криминал
Режиссер: Александр Муратов
Актеры: Дмитрий Певцов, Армен Джигарханян, Юрий Назаров, Валерий Носик, Лев Прыгунов, Владимир Самойлов, Борис Щербаков, Виктор Филиппов, Борис Клюев, Игорь Ясулович, Татьяна Скороходова, Евгений Евстигнеев, Владимир Аникин, Владимир Еремин
Описание:
По детективному роману Виктора Доценко. Савелий Говорков возвращается из Афганистана. Молодому парню приходится вступить в неравный бой с мафией. Однако криминальные авторитеты не прощают тех, кто встает у них на пути. Говоркова подставляют, и он оказывается за решеткой. Теперь цель его жизни - отомстить...

Возраст: 16+ (зрителям, достигшим 16 лет. )
Продолжительность: 01:23:30
Качество видео: DVDRip
Субтитры: нет
Видео: MPEG4/AVC/H.264, 684x574@729х574, ~2323 Kbps
Аудио: AC3, 2 ch, 192 kbps, CBR

Mediainfo:

Общее
Уникальный идентификатор : 246296953823254103798826486361055411322 (0xB94B115F239819E2841815239C81BC7A)
Полное имя : D:\По прозвищу Зверь_1990-DVDRip-AVC.mkv
Формат : Matroska
Версия формата : Version 2
Размер файла : 1,47 Гбайт
Продолжительность : 1 ч. 23 м.
Общий поток : 2516 Кбит/сек
Дата кодирования : UTC 2014-04-09 23:52:11
Программа кодирования : mkvmerge v5.1.0 ('And so it goes') built on Nov 28 2011 23:58:28
Библиотека кодирования : libebml v1.2.3 + libmatroska v1.3.0
Видео
Идентификатор : 1
Формат : AVC
Формат/Информация : Advanced Video Codec
Профиль формата : High@L4.1
Параметр CABAC формата : Да
Параметр ReFrames формата : 15 кадров
Идентификатор кодека : V_MPEG4/ISO/AVC
Продолжительность : 1 ч. 23 м.
Битрейт : 2322 Кбит/сек
Ширина : 684 пикселя
Высота : 574 пикселя
Соотношение сторон : 1,270
Соотношение сторон в оригинале : 1,271
Режим частоты кадров : Постоянный
Частота кадров : 25,000 кадров/сек
Цветовое пространство : YUV
Субдискретизация насыщенности : 4:2:0
Битовая глубина : 8 бит
Тип развёртки : Прогрессивная
Бит/(Пиксели*Кадры) : 0.237
Размер потока : 1,33 Гбайт (90%)
Библиотека кодирования : x264 core 142 r2409 d6b4e63
Настройки программы : cabac=1 / ref=15 / deblock=1:-2:-2 / analyse=0x3:0x133 / me=umh / subme=11 / psy=1 / psy_rd=1.07:0.20 / mixed_ref=1 / me_range=24 / chroma_me=1 / trellis=2 / 8x8dct=1 / cqm=0 / deadzone=21,11 / fast_pskip=0 / chroma_qp_offset=-3 / threads=12 / lookahead_threads=2 / sliced_threads=0 / nr=0 / decimate=0 / interlaced=0 / bluray_compat=0 / constrained_intra=0 / bframes=9 / b_pyramid=2 / b_adapt=2 / b_bias=0 / direct=3 / weightb=1 / open_gop=0 / weightp=2 / keyint=250 / keyint_min=25 / scenecut=40 / intra_refresh=0 / rc_lookahead=60 / rc=2pass / mbtree=1 / bitrate=2322 / ratetol=1.0 / qcomp=0.70 / qpmin=0 / qpmax=39 / qpstep=4 / cplxblur=20.0 / qblur=0.5 / ip_ratio=1.30 / aq=1:1.00
Язык : English
Default : Да
Forced : Нет
Основные цвета : BT.601 PAL
Характеристики трансфера : BT.470 System B, BT.470 System G
Коэффициенты матрицы : BT.601
Аудио
Идентификатор : 2
Формат : AC-3
Формат/Информация : Audio Coding 3
Расширение режима : CM (complete main)
Параметр Endianness формата : Big
Идентификатор кодека : A_AC3
Продолжительность : 1 ч. 23 м.
Вид битрейта : Постоянный
Битрейт : 192 Кбит/сек
Каналы : 2 канала
Расположение каналов : Front: L R
Частота : 48,0 КГц
Битовая глубина : 16 бит
Метод сжатия : С потерями
Задержка видео : 96 мс.
Размер потока : 115 Мбайт (8%)
Язык : Russian
Default : Да
Forced : Нет

Рецензия, отзыв:

«А с чего вы взяли, что я буду у вас работать?..»
Савелий Говорков — бывший «шурави» (так называли советских военных моджахеды и им сочувствующие в Афгане), ныне зэк, попавший в колонию из-за подставы по «валютной» статье, осужденный на долгие 9 лет. Обладающий смекалкой и боевыми навыками на очень высоком уровне (за что и было ему дано прозвище Зверь), немногословный, малоприветливый, и всё же принципиальный и порядочный — он являет собой образ позднесоветского сверхчеловека.
В конце 90-х его место займёт народный «брат» Данила Багров, близкий ему по духу. А в конце 80-х-начале 90х, увы, нашего Зверя затмили Рембо и Коммандосы, хотя он им ни в чём не уступает (я люблю и зарубежные боевики 80-х, не думайте, что у меня разыгрывается приступ квасного патриотизма). Кстати, в самом начале фильма Дмитрий Певцов в роли Говоркова весьма смахивает на Рембо — едва достигающие плеч тёмные волосы, щетина, взгляд грустный, но не сломленный.
Отмечу характерные для развития сюжета периодические «возвращения» в прежнюю (дотюремную) жизнь. Там Савелий живёт вполне себе человеческой жизнью: работёнка с не особо густым доходом, общение с друзьями (вернее, одним другом, бывшим сослуживщем), попытки забыть Афган и все ужасы, там пережитые. Потом — встреча со странной молодой женщиной, обеспеченный любовник которой решает нанять в силу определённых обстоятельств (не буду спойлерить) Савелия к ней телохранителем. После недолгих колебаний он соглашается, вот тут-то всё и завязывается…
В итоге получается боевик с русским менталитетом. С нехитрой философией, лирическими отступлениями. Достойные внимания роли пожилых заключённых исполнили А. Джигарханян и Е. Евстигнеев.
К просмотру рекомендую любителям указанного на странице данного фильма жанра. Да и тем, кто к этому жанру равнодушен, тоже рекомендую: история решительного человека с железной волей (пусть приукрашенная, на то это и кино) привлекла бы неплохую в плане численности аудиторию.
И да не смутит вас год выпуска»… Зверя»: тогда советский/российский переживал не лучшие времена и явно не блистал качественными работами, однако эта — одна из немногих исключений, подтверждающих правило.
10 из 10.
Скриншоты:
Не жилим спасибо. Не забываем голосовать за трекер!!!


Показать сообщения:    

Текущее время: 19-Май 11:33

Часовой пояс: UTC + 3


Вы не можете начинать темы
Вы не можете отвечать на сообщения
Вы не можете редактировать свои сообщения
Вы не можете удалять свои сообщения
Вы не можете голосовать в опросах
Вы не можете прикреплять файлы к сообщениям
Вы не можете скачивать файлы

!ВНИМАНИЕ!
Сайт не предоставляет электронные версии произведений, а занимается лишь коллекционированием и каталогизацией ссылок, присылаемых и публикуемых на форуме нашими читателями. Если вы являетесь правообладателем какого-либо представленного материала и не желаете, чтобы ссылка на него находилась в нашем каталоге, свяжитесь с нами, и мы незамедлительно удалим ее. Файлы для обмена на трекере предоставлены пользователями сайта, и администрация не несет ответственности за их содержание. Просьба не заливать файлы, защищенные авторскими правами, а также файлы нелегального содержания!