۩ ‼ Вы находитесь на Бесплатном торрент-трекере TORRNADA.com ۩ Зарегистрируйтесь для получения полного доступа ко всем функциям сайта ! ۩ После регистрации подпишитесь на нашу рассылку в своём профиле ۩
Auto Web Pinger

 

[Цитировать]

Manowar - Greatest Hits (2012) 2CD - -Год: 2012 Жанр: Heavy Metal Продолжительность: 02:29:29 Издатель: Zebra Studio
Номер по каталогу: AZ-146 Источник: Dark Crown
-Кодек: FLAC Битрейт: Lossless Тип рипа: image+.cue+covers-

CD 1:

Треклист:
01. Kings Of Metal
02. Hail And Kill
03. Master Of The Wind
04. Hand Of Doom
05. Die For Metal
06. Kingdom Come
07. Kill With Power
08. Manowar
09. Battle Hymn
10. The Gods Made Heavy Metal
11. Courage
12. Carry On
13. Holy War
14. Metal Warriors
15. Thor [The Powerhead]
16. Brothers Of Metal
Продолжительноcть: 01:16:07

Отчет EAC:

Exact Audio Copy V1.0 beta 3 from 29. August 2011
Отчёт EAC об извлечении, выполненном 23. июня 2015, 15:41
Manowar / Greatest Hits [CD 1]
Дисковод: Optiarc DVD RW AD-5200S   Adapter: 3  ID: 0
Режим чтения                 : Достоверность
Использование точного потока : Да
Отключение кэша аудио        : Да
Использование указателей C2  : Нет
Коррекция смещения при чтении                     : 48
Способность читать области Lead-in и Lead-out     : Нет
Заполнение пропущенных сэмплов тишиной            : Да
Удаление блоков с тишиной в начале и конце        : Нет
При вычислениях CRC использовались нулевые сэмплы : Да
Интерфейс                                         : Установленный внешний ASPI-интерфейс
Выходной формат          : Пользовательский кодировщик
Выбранный битрейт        : 32 kBit/s
Качество                 : Высокий
Добавление ID3-тега      : Нет
Утилита сжатия           : C:\Program Files\Exact Audio Copy\FLAC\FLAC.EXE
Дополнительные параметры : -6 -V -T "ARTIST=%artist%" -T "TITLE=%title%" -T "ALBUM=%albumtitle%" -T "DATE=%year%" -T "TRACKNUMBER=%tracknr%" -T "GENRE=%genre%" -T "COMMENT=%comment%" -T "BAND=%albuminterpret%" -T "ALBUMARTIST=%albuminterpret%" -T "COMPOSER=%composer%" %haslyrics%--tag-from-file=LYRICS="%lyricsfile%"%haslyrics% -T "DISCNUMBER=%cdnumber%" -T "TOTALDISCS=%totalcds%" -T "TOTALTRACKS=%numtracks%" %hascover%--picture="%coverfile%"%hascover% %source% -o %dest%
TOC извлечённого CD
     Трек |   Старт  | Длительность | Начальный сектор | Конечный сектор
    ---------------------------------------------------------------------
       1  |  0:00.00 |    3:38.43   |           0      |      16392
       2  |  3:38.43 |    5:52.73   |       16393      |      42865
       3  |  9:31.41 |    5:22.10   |       42866      |      67025
       4  | 14:53.51 |    5:41.21   |       67026      |      92621
       5  | 20:34.72 |    5:16.02   |       92622      |     116323
       6  | 25:50.74 |    3:53.39   |      116324      |     133837
       7  | 29:44.38 |    3:56.13   |      133838      |     151550
       8  | 33:40.51 |    3:37.52   |      151551      |     167877
       9  | 37:18.28 |    6:56.52   |      167878      |     199129
      10  | 44:15.05 |    6:03.72   |      199130      |     226426
      11  | 50:19.02 |    3:47.42   |      226427      |     243493
      12  | 54:06.44 |    4:06.54   |      243494      |     261997
      13  | 58:13.23 |    4:46.32   |      261998      |     283479
      14  | 62:59.55 |    3:49.40   |      283480      |     300694
      15  | 66:49.20 |    5:23.55   |      300695      |     324974
      16  | 72:13.00 |    3:53.43   |      324975      |     342492
Характеристики диапазона извлечения и сообщения об ошибках
Выбранный диапазон
     Имя файла F:\LOSSLESS\Рипы\Manowar - Greatest Hits [CD 1].wav
     Пиковый уровень 89.1 %
     Скорость извлечения 4.5 X
     Качество диапазона 100.0 %
     CRC теста DAEA89A8
     CRC копии DAEA89A8
     Копирование... OK
Ошибок не произошло
AccurateRip: сводка
Трек  1  отсутствует в базе данных
Трек  2  отсутствует в базе данных
Трек  3  отсутствует в базе данных
Трек  4  отсутствует в базе данных
Трек  5  отсутствует в базе данных
Трек  6  отсутствует в базе данных
Трек  7  отсутствует в базе данных
Трек  8  отсутствует в базе данных
Трек  9  отсутствует в базе данных
Трек 10  отсутствует в базе данных
Трек 11  отсутствует в базе данных
Трек 12  отсутствует в базе данных
Трек 13  отсутствует в базе данных
Трек 14  отсутствует в базе данных
Трек 15  отсутствует в базе данных
Трек 16  отсутствует в базе данных
Ни одного трека нет в базе AccurateRip
Конец отчёта
==== Контрольная сумма отчёта AFFCFEA58326770870F7A1CC397B8C089854B9158993FB43CCF69871646FE2C1 ====

Отчет auCDtect Task manager:

-----------------------
DON'T MODIFY THIS FILE
-----------------------
PERFORMER: auCDtect Task Manager, ver. 1.6.0 RC1 build 1.6.0.1
Copyright (c) 2008-2010 y-soft. All rights reserved
http://y-soft.org
ANALYZER: auCDtect: CD records authenticity detector, version 0.8.2
Copyright (c) 2004 Oleg Berngardt. All rights reserved.
Copyright (c) 2004 Alexander Djourik. All rights reserved.
FILE: Manowar - Greatest Hits [CD 1].flac
  Size: 485371758 Hash: F012FC8E5A4F0E311AE37F2B3240B689 Accuracy: -m0
  Conclusion: CDDA 100%
  Signature: 0D8078BFEDD70ABAEA940DB1E799D59D13B062E3

Отчет .CUE:

REM GENRE "Heavy Metal"
REM DATE 2012
REM DISCID D011D610
REM COMMENT "ExactAudioCopy v1.0b3"
PERFORMER "Manowar"
TITLE "Greatest Hits [CD 1]"
FILE "Manowar - Greatest Hits [CD 1].flac" WAVE
  TRACK 01 AUDIO
    TITLE "Kings Of Metal"
    PERFORMER "Manowar"
    INDEX 01 00:00:00
  TRACK 02 AUDIO
    TITLE "Hail And Kill"
    PERFORMER "Manowar"
    INDEX 01 03:38:43
  TRACK 03 AUDIO
    TITLE "Master Of The Wind"
    PERFORMER "Manowar"
    INDEX 01 09:31:41
  TRACK 04 AUDIO
    TITLE "Hand Of Doom"
    PERFORMER "Manowar"
    INDEX 01 14:53:51
  TRACK 05 AUDIO
    TITLE "Die For Metal"
    PERFORMER "Manowar"
    INDEX 01 20:34:72
  TRACK 06 AUDIO
    TITLE "Kingdom Come"
    PERFORMER "Manowar"
    INDEX 01 25:50:74
  TRACK 07 AUDIO
    TITLE "Kill With Power"
    PERFORMER "Manowar"
    INDEX 01 29:44:38
  TRACK 08 AUDIO
    TITLE "Manowar"
    PERFORMER "Manowar"
    INDEX 01 33:40:51
  TRACK 09 AUDIO
    TITLE "Battle Hymn"
    PERFORMER "Manowar"
    INDEX 01 37:18:28
  TRACK 10 AUDIO
    TITLE "The Gods Made Heavy Metal"
    PERFORMER "Manowar"
    INDEX 01 44:15:05
  TRACK 11 AUDIO
    TITLE "Courage"
    PERFORMER "Manowar"
    INDEX 01 50:19:02
  TRACK 12 AUDIO
    TITLE "Carry On"
    PERFORMER "Manowar"
    INDEX 01 54:06:44
  TRACK 13 AUDIO
    TITLE "Holy War"
    PERFORMER "Manowar"
    INDEX 01 58:13:23
  TRACK 14 AUDIO
    TITLE "Metal Warriors"
    PERFORMER "Manowar"
    INDEX 01 62:59:55
  TRACK 15 AUDIO
    TITLE "Thor [The Powerhead]"
    PERFORMER "Manowar"
    INDEX 01 66:49:20
  TRACK 16 AUDIO
    TITLE "Brothers Of Metal"
    PERFORMER "Manowar"
    INDEX 01 72:13:00

CD 2:

Треклист:
01. Heart Of Steel
02. Warriors Of The World United
03. Return Of The Warlord
04. Fighting The World
05. Call To Arms
06. The Crown And The Ring [Lament Of The Kings]
07. Blood Of My Enemies
08. Defender
09. Blood Of The Kings
10. Number 1
11. Metal Daze
12. Sting Of The Bumblebee
13. Black Wind, Fire And Steel
14. Thunder In The Sky
15. Father
Продолжительноcть: 01:13:23

Отчет EAC:

Exact Audio Copy V1.0 beta 3 from 29. August 2011
Отчёт EAC об извлечении, выполненном 23. июня 2015, 16:37
Manowar / Greatest Hits [CD 2]
Дисковод: Optiarc DVD RW AD-5200S   Adapter: 3  ID: 0
Режим чтения                 : Достоверность
Использование точного потока : Да
Отключение кэша аудио        : Да
Использование указателей C2  : Нет
Коррекция смещения при чтении                     : 48
Способность читать области Lead-in и Lead-out     : Нет
Заполнение пропущенных сэмплов тишиной            : Да
Удаление блоков с тишиной в начале и конце        : Нет
При вычислениях CRC использовались нулевые сэмплы : Да
Интерфейс                                         : Установленный внешний ASPI-интерфейс
Выходной формат          : Пользовательский кодировщик
Выбранный битрейт        : 32 kBit/s
Качество                 : Высокий
Добавление ID3-тега      : Нет
Утилита сжатия           : C:\Program Files\Exact Audio Copy\FLAC\FLAC.EXE
Дополнительные параметры : -6 -V -T "ARTIST=%artist%" -T "TITLE=%title%" -T "ALBUM=%albumtitle%" -T "DATE=%year%" -T "TRACKNUMBER=%tracknr%" -T "GENRE=%genre%" -T "COMMENT=%comment%" -T "BAND=%albuminterpret%" -T "ALBUMARTIST=%albuminterpret%" -T "COMPOSER=%composer%" %haslyrics%--tag-from-file=LYRICS="%lyricsfile%"%haslyrics% -T "DISCNUMBER=%cdnumber%" -T "TOTALDISCS=%totalcds%" -T "TOTALTRACKS=%numtracks%" %hascover%--picture="%coverfile%"%hascover% %source% -o %dest%
TOC извлечённого CD
     Трек |   Старт  | Длительность | Начальный сектор | Конечный сектор
    ---------------------------------------------------------------------
       1  |  0:00.00 |    5:03.68   |           0      |      22792
       2  |  5:03.68 |    5:46.25   |       22793      |      48767
       3  | 10:50.18 |    5:17.66   |       48768      |      72608
       4  | 16:08.09 |    3:48.25   |       72609      |      89733
       5  | 19:56.34 |    5:27.30   |       89734      |     114288
       6  | 25:23.64 |    4:45.10   |      114289      |     135673
       7  | 30:08.74 |    4:11.04   |      135674      |     154502
       8  | 34:20.03 |    5:55.64   |      154503      |     181191
       9  | 40:15.67 |    7:24.62   |      181192      |     214553
      10  | 47:40.54 |    5:12.47   |      214554      |     238000
      11  | 52:53.26 |    4:20.05   |      238001      |     257505
      12  | 57:13.31 |    2:45.68   |      257506      |     269948
      13  | 59:59.24 |    5:08.22   |      269949      |     293070
      14  | 65:07.46 |    4:24.26   |      293071      |     312896
      15  | 69:31.72 |    3:50.31   |      312897      |     330177
Характеристики диапазона извлечения и сообщения об ошибках
Выбранный диапазон
     Имя файла F:\LOSSLESS\Рипы\Manowar - Greatest Hits [CD 2].wav
     Пиковый уровень 89.1 %
     Скорость извлечения 4.5 X
     Качество диапазона 100.0 %
     CRC теста 238B6F52
     CRC копии 238B6F52
     Копирование... OK
Ошибок не произошло
AccurateRip: сводка
Трек  1  отсутствует в базе данных
Трек  2  отсутствует в базе данных
Трек  3  отсутствует в базе данных
Трек  4  отсутствует в базе данных
Трек  5  отсутствует в базе данных
Трек  6  отсутствует в базе данных
Трек  7  отсутствует в базе данных
Трек  8  отсутствует в базе данных
Трек  9  отсутствует в базе данных
Трек 10  отсутствует в базе данных
Трек 11  отсутствует в базе данных
Трек 12  отсутствует в базе данных
Трек 13  отсутствует в базе данных
Трек 14  отсутствует в базе данных
Трек 15  отсутствует в базе данных
Ни одного трека нет в базе AccurateRip
Конец отчёта
==== Контрольная сумма отчёта D9525EB47D67F1F21101FE995C2F0E58CB0721A38EA89A4D1271F8A3CECEEA25 ====

Отчет auCDtect Task manager:

-----------------------
DON'T MODIFY THIS FILE
-----------------------
PERFORMER: auCDtect Task Manager, ver. 1.6.0 RC1 build 1.6.0.1
Copyright (c) 2008-2010 y-soft. All rights reserved
http://y-soft.org
ANALYZER: auCDtect: CD records authenticity detector, version 0.8.2
Copyright (c) 2004 Oleg Berngardt. All rights reserved.
Copyright (c) 2004 Alexander Djourik. All rights reserved.
FILE: Manowar - Greatest Hits [CD 2].flac
  Size: 472608639 Hash: 62B4402470C506BFC31F97C5F92598B2 Accuracy: -m0
  Conclusion: CDDA 100%
  Signature: D66037AEFAC6BC14960F6A47898EE0CA12D3DDAD

Отчет .CUE:

REM GENRE "Heavy Metal"
REM DATE 2012
REM DISCID C811320F
REM COMMENT "ExactAudioCopy v1.0b3"
PERFORMER "Manowar"
TITLE "Greatest Hits [CD 2]"
FILE "Manowar - Greatest Hits [CD 2].flac" WAVE
  TRACK 01 AUDIO
    TITLE "Heart Of Steel"
    PERFORMER "Manowar"
    INDEX 01 00:00:00
  TRACK 02 AUDIO
    TITLE "Warriors Of The World United"
    PERFORMER "Manowar"
    INDEX 01 05:03:68
  TRACK 03 AUDIO
    TITLE "Return Of The Warlord"
    PERFORMER "Manowar"
    INDEX 01 10:50:18
  TRACK 04 AUDIO
    TITLE "Fighting The World"
    PERFORMER "Manowar"
    INDEX 01 16:08:09
  TRACK 05 AUDIO
    TITLE "Call To Arms"
    PERFORMER "Manowar"
    INDEX 01 19:56:34
  TRACK 06 AUDIO
    TITLE "The Crown And The Ring [Lament Of The Kings]"
    PERFORMER "Manowar"
    INDEX 01 25:23:64
  TRACK 07 AUDIO
    TITLE "Blood Of My Enemies"
    PERFORMER "Manowar"
    INDEX 01 30:08:74
  TRACK 08 AUDIO
    TITLE "Defender"
    PERFORMER "Manowar"
    INDEX 01 34:20:03
  TRACK 09 AUDIO
    TITLE "Blood Of The Kings"
    PERFORMER "Manowar"
    INDEX 01 40:15:67
  TRACK 10 AUDIO
    TITLE "Number 1"
    PERFORMER "Manowar"
    INDEX 01 47:40:54
  TRACK 11 AUDIO
    TITLE "Metal Daze"
    PERFORMER "Manowar"
    INDEX 01 52:53:26
  TRACK 12 AUDIO
    TITLE "Sting Of The Bumblebee"
    PERFORMER "Manowar"
    INDEX 01 57:13:31
  TRACK 13 AUDIO
    TITLE "Black Wind, Fire And Steel"
    PERFORMER "Manowar"
    INDEX 01 59:59:24
  TRACK 14 AUDIO
    TITLE "Thunder In The Sky"
    PERFORMER "Manowar"
    INDEX 01 65:07:46
  TRACK 15 AUDIO
    TITLE "Father"
    PERFORMER "Manowar"
    INDEX 01 69:31:72
Не жилим спасибо. Не забываем голосовать за трекер!!!
[torrnada.com].t107848.torrent
Торрент: Зарегистрирован   [ 2015-07-26 20:41 ] · 36122BE319D2F259C8EBF33317519DD6CDA10AD2

Скачать .torrent

Скачать

20 KB

Статус: проверено
Скачан: 32 раз
Размер: 937 MB
Оценка:  - (Голосов: 0) СуперХорошоСреднеТак себеОтстой
Поблагодарили: 0  Спасибо
Поделится:


Показать сообщения:    

Текущее время: 21-Май 07:35

Часовой пояс: UTC + 3


Вы не можете начинать темы
Вы не можете отвечать на сообщения
Вы не можете редактировать свои сообщения
Вы не можете удалять свои сообщения
Вы не можете голосовать в опросах
Вы не можете прикреплять файлы к сообщениям
Вы можете скачивать файлы

!ВНИМАНИЕ!
Сайт не предоставляет электронные версии произведений, а занимается лишь коллекционированием и каталогизацией ссылок, присылаемых и публикуемых на форуме нашими читателями. Если вы являетесь правообладателем какого-либо представленного материала и не желаете, чтобы ссылка на него находилась в нашем каталоге, свяжитесь с нами, и мы незамедлительно удалим ее. Файлы для обмена на трекере предоставлены пользователями сайта, и администрация не несет ответственности за их содержание. Просьба не заливать файлы, защищенные авторскими правами, а также файлы нелегального содержания!