۩ ‼ Вы находитесь на Бесплатном торрент-трекере TORRNADA.com ۩ Зарегистрируйтесь для получения полного доступа ко всем функциям сайта ! ۩ После регистрации подпишитесь на нашу рассылку в своём профиле ۩
Auto Web Pinger

 

[Цитировать]

Формула 1. Гран-При Венгрии. Гонка (2015) SATRip - Телекомпания: Россия
Жанр: Спорт, авто
Комментатор: Алексей Попов, Наталья Фабричнова
Описание:
Десятый этап чемпионата "Формулы-1" 2015 года примет венгерский "Хунгароринг" и станет первым гоночным уикендом после смерти французского гонщика Жюля Бьянки.
Пилот команды Ф-1 "Мерседес" Льюис Хэмилтон
После девяти этапов лидером общего зачета является британец Льюис Хэмилтон из "Мерседес" (194 очка), за ним следуют его напарник по команде немец Нико Росберг (177) и немец Себастьян Феттель из "Феррари" (135), россиянин Даниил Квят с 27 очками идет восьмым. В Кубке конструкторов на счету "Мерседеса" 371 очко, гонщики "Феррари" набрали 211 баллов, а на третьем месте идет "Уильямс" (151), команда Квята "Ред Булл" занимает четвертое место (63). (С)
Продолжительность: 02:22:13
Качество видео: SATRip
Видеокодек: AVC/H.264
Битрейт видео: 1961 kb/s
Размер кадра: 704x400
Аудиокодек: AC3 2.0
Битрейт аудио: 192 kb/s

MI

Общее
Уникальный идентификатор : 202156598429999100179723012417787275651 (0x9815F1D3BE0316A3B9FBA0292AD42983)
Полное имя : D:\Формула. Гонка. Венгрия. Аспект. 26.07.2015.mkv
Формат : Matroska
Версия формата : Version 2
Размер файла : 2,18 Гбайт
Продолжительность : 2 ч. 22 м.
Общий поток : 2197 Кбит/сек
Дата кодирования : UTC 2015-07-26 13:26:42
Программа кодирования : mkvmerge v5.7.0 ('The Whirlwind') built on Jul 29 2012 15:12:35
Библиотека кодирования : libebml v1.2.3 + libmatroska v1.3.0
Видео
Идентификатор : 2
Формат : AVC
Формат/Информация : Advanced Video Codec
Профиль формата : High@L4.1
Параметр CABAC формата : Да
Параметр ReFrames формата : 3 кадра
Идентификатор кодека : V_MPEG4/ISO/AVC
Продолжительность : 2 ч. 22 м.
Битрейт : 1961 Кбит/сек
Номинальный битрейт : 2100 Кбит/сек
Ширина : 704 пикселя
Высота : 400 пикселей
Соотношение сторон : 16:9
Режим частоты кадров : Постоянный
Частота кадров : 25,000 кадров/сек
Цветовое пространство : YUV
Субдискретизация насыщенности : 4:2:0
Битовая глубина : 8 бит
Тип развёртки : Прогрессивная
Бит/(Пиксели*Кадры) : 0.279
Размер потока : 1,95 Гбайт (89%)
Библиотека кодирования : x264 core 128 r2216M 198a7ea
Настройки программы : cabac=1 / ref=3 / deblock=1:0:0 / analyse=0x3:0x133 / me=hex / subme=7 / psy=1 / psy_rd=1.00:0.20 / mixed_ref=1 / me_range=16 / chroma_me=1 / trellis=1 / 8x8dct=1 / cqm=0 / deadzone=21,11 / fast_pskip=1 / chroma_qp_offset=-3 / threads=8 / lookahead_threads=1 / sliced_threads=0 / nr=0 / decimate=1 / interlaced=0 / bluray_compat=0 / constrained_intra=0 / bframes=3 / b_pyramid=1 / b_adapt=2 / b_bias=0 / direct=3 / weightb=1 / open_gop=0 / weightp=2 / keyint=250 / keyint_min=25 / scenecut=40 / intra_refresh=0 / rc_lookahead=40 / rc=cbr / mbtree=1 / bitrate=2100 / ratetol=1.0 / qcomp=0.60 / qpmin=10 / qpmax=51 / qpstep=4 / vbv_maxrate=2100 / vbv_bufsize=2100 / nal_hrd=none / ip_ratio=1.40 / aq=1:1.00
Язык : English
Default : Да
Forced : Нет
Аудио
Идентификатор : 1
Формат : AC-3
Формат/Информация : Audio Coding 3
Расширение режима : CM (complete main)
Параметр Endianness формата : Big
Идентификатор кодека : A_AC3
Продолжительность : 2 ч. 22 м.
Вид битрейта : Постоянный
Битрейт : 192 Кбит/сек
Каналы : 2 канала
Расположение каналов : Front: L R
Частота : 48,0 КГц
Метод сжатия : С потерями
Задержка видео : 27 мс.
Размер потока : 195 Мбайт (9%)
Язык : English
Default : Да
Forced : Нет
Скриншоты:
Не жилим спасибо. Не забываем голосовать за трекер!!!


Показать сообщения:    

Текущее время: 21-Май 03:33

Часовой пояс: UTC + 3


Вы не можете начинать темы
Вы не можете отвечать на сообщения
Вы не можете редактировать свои сообщения
Вы не можете удалять свои сообщения
Вы не можете голосовать в опросах
Вы не можете прикреплять файлы к сообщениям
Вы не можете скачивать файлы

!ВНИМАНИЕ!
Сайт не предоставляет электронные версии произведений, а занимается лишь коллекционированием и каталогизацией ссылок, присылаемых и публикуемых на форуме нашими читателями. Если вы являетесь правообладателем какого-либо представленного материала и не желаете, чтобы ссылка на него находилась в нашем каталоге, свяжитесь с нами, и мы незамедлительно удалим ее. Файлы для обмена на трекере предоставлены пользователями сайта, и администрация не несет ответственности за их содержание. Просьба не заливать файлы, защищенные авторскими правами, а также файлы нелегального содержания!