۩ ‼ Вы находитесь на Бесплатном торрент-трекере TORRNADA.com ۩ Зарегистрируйтесь для получения полного доступа ко всем функциям сайта ! ۩ После регистрации подпишитесь на нашу рассылку в своём профиле ۩
Auto Web Pinger

 

[Цитировать]

Информация о фильме
Название: Место встречи изменить нельзя
Год выхода: 1979
Жанр: боевик, криминал, детектив, приключения
Режиссер: Станислав Говорухин
В ролях: Владимир Высоцкий, Евгений Евстигнеев, Владимир Конкин, Армен Джигарханян, Александр Белявский, Зиновий Гердт, Иван Бортник, Андрей Градов, Екатерина Градова, Наталья Данилова, Всеволод Абдулов, Евгений Леонов-Гладышев, Лев Перфилов, Станислав Садальский, Евгений Шутов, Лариса Удовиченко, Сергей Юрский, Наталья Фатеева, Виктор Павлов, Леонид Куравлев, Александр Абдулов, Светлана Светличная, Наталья Крачковская, Валерия Заклунная
О фильме: Убийства, засады, погони, перестрелки — на фоне послевоенной Москвы. Сотрудники МУРа против таинственной и неуловимой банды «Черная кошка». Демобилизовавшийся офицер разведки Володя Шарапов начинает работать в отделе по борьбе с бандитизмом. Одно из первых дел, в расследовании которых он участвует, — убийство Ларисы Груздевой…
Страна: СССР
Продолжительность: 5 x ~ 01:15:00
Перевод: Не требуется
Файл
Кодек: XviD
Качество: DVDRip
Видео: XviD, 704x544 (1.29:4), 25 fps, ~ 1300 kbps
Звук: AC3, 48 kHz, 3/2 (L,C,R,l,r) + LFE ch, ~384.00 kbps

МедиаИнфо

Общее
Полное имя : Mesto.vstrechi.izmenitj.neljzja.1979.XviD.DVDRip.by.GeneralFilmserija.01.avi
Формат : AVI
Формат/Информация : Audio Video Interleave
Размер файла : 890 Мбайт
Продолжительность : 1 ч. 6 м.
Общий поток : 1865 Кбит/сек
Программа кодирования : VirtualDubMod 1.5.10.3 | www.virtualdub-fr.org || (build 2550/release)
Библиотека кодирования : VirtualDubMod build 2550/release
Видео
Идентификатор : 0
Формат : MPEG-4 Visual
Профиль формата : Advanced Simple@L5
Параметр BVOP формата : 1
Параметр QPel формата : Нет
Параметр GMC формата : Без точки перехода
Параметр матрицы формата : Выборочная
Идентификатор кодека : XVID
Идентификатор кодека/Подсказка : XviD
Продолжительность : 1 ч. 6 м.
Битрейт : 1471 Кбит/сек
Ширина : 704 пикселя
Высота : 544 пикселя
Соотношение сторон : 1,294
Частота кадров : 25,000 кадров/сек
Цветовое пространство : YUV
Субдискретизация насыщенности : 4:2:0
Битовая глубина : 8 бит
Тип развёртки : Прогрессивная
Метод сжатия : С потерями
Бит/(Пиксели*Кадры) : 0.154
Размер потока : 702 Мбайт (79%)
Библиотека кодирования : XviD 73
Аудио
Идентификатор : 1
Формат : AC-3
Формат/Информация : Audio Coding 3
Расширение режима : CM (complete main)
Параметр Endianness формата : Big
Идентификатор кодека : 2000
Продолжительность : 1 ч. 6 м.
Вид битрейта : Постоянный
Битрейт : 384 Кбит/сек
Каналы : 6 каналов
Расположение каналов : Front: L C R, Side: L R, LFE
Частота : 48,0 КГц
Метод сжатия : С потерями
Размер потока : 183 Мбайт (21%)
Выравнивание : Разделение по промежуткам
Продолжительность промежутка : 40 мс. (1,00 видеокадр)
Время предзагрузки промежутка : 500 мс.
Релиз от: Не жилим спасибо. Не забываем голосовать за трекер!!!

Топик был перенесен из форума Отечественные в форум Архив "Кино, Сериалы, Мультфильмы, Телепрограммы"
optimist


Показать сообщения:    

Текущее время: 23-Май 15:51

Часовой пояс: UTC + 3


Вы не можете начинать темы
Вы не можете отвечать на сообщения
Вы не можете редактировать свои сообщения
Вы не можете удалять свои сообщения
Вы не можете голосовать в опросах
Вы не можете прикреплять файлы к сообщениям
Вы не можете скачивать файлы

!ВНИМАНИЕ!
Сайт не предоставляет электронные версии произведений, а занимается лишь коллекционированием и каталогизацией ссылок, присылаемых и публикуемых на форуме нашими читателями. Если вы являетесь правообладателем какого-либо представленного материала и не желаете, чтобы ссылка на него находилась в нашем каталоге, свяжитесь с нами, и мы незамедлительно удалим ее. Файлы для обмена на трекере предоставлены пользователями сайта, и администрация не несет ответственности за их содержание. Просьба не заливать файлы, защищенные авторскими правами, а также файлы нелегального содержания!