۩ ‼ Вы находитесь на Бесплатном торрент-трекере TORRNADA.com ۩ Зарегистрируйтесь для получения полного доступа ко всем функциям сайта ! ۩ После регистрации подпишитесь на нашу рассылку в своём профиле ۩
Auto Web Pinger

 

[Цитировать]

10 правил для тех, кто спит с кем попало / 10 Rules for Sleeping Around (2013) WEB-DLRip [720p-LQ] [EN] - Производство: США, Thinkfactory Media
Жанр: Комедия, Мелодрама
Режиссер: Лесли Грейф
Актеры: Таммин Сурсок, Вирджиния Уильямс, Крис Маркетт, Джесси Брэдфорд, Кори Саундерс, Майкл Корбетт, Майкл МакКин, Лесли Грейф
Описание:
История об отношениях внутри двух молодых пар и их 10 правилах, помогающих сохранять гармонию и взаимопонимание в любой ситуации.

Продолжительность: 01:34:14
Качество видео: WEB-DLRip
Перевод: Отсутствует
Язык озвучки: Английский
Видео: Xvid, 1280x728, ~3498 Kbps
Аудио: AC3, 6 ch, 384 kbps, CBR

Mediainfo:

General
Complete name                    : H:\Downloads\Movies With Original Language\10 Rules For Seeping Around (2013)[WEB-DLRip].avi
Format                           : AVI
Format/Info                      : Audio Video Interleave
Format profile                   : OpenDML
File size                        : 2.56 GiB
Duration                         : 1h 34mn
Overall bit rate                 : 3 893 Kbps
Movie name                       : RARBG.COM - 10.Rules.for.Sleeping.Around.2013.720p.WEB-DL.XviD.AC3-RARBG
Writing library                  : VirtualDub build 35491/release
Comment                          : RARBG.COM - 10.Rules.for.Sleeping.Around.2013.720p.WEB-DL.XviD.AC3-RARBG
Video
ID                               : 0
Format                           : MPEG-4 Visual
Format profile                   : Simple@L5
Format settings, BVOP            : No
Format settings, QPel            : No
Format settings, GMC             : No warppoints
Format settings, Matrix          : Default (H.263)
Codec ID                         : XVID
Codec ID/Hint                    : XviD
Duration                         : 1h 34mn
Bit rate                         : 3 498 Kbps
Width                            : 1 280 pixels
Height                           : 728 pixels
Display aspect ratio             : 16:9
Frame rate                       : 23.976 fps
Color space                      : YUV
Chroma subsampling               : 4:2:0
Bit depth                        : 8 bits
Scan type                        : Progressive
Bits/(Pixel*Frame)               : 0.157
Stream size                      : 2.30 GiB (90%)
Writing library                  : Lavc55.55.104
Audio
ID                               : 1
Format                           : AC-3
Format/Info                      : Audio Coding 3
Mode extension                   : CM (complete main)
Codec ID                         : 2000
Duration                         : 1h 34mn
Bit rate mode                    : Constant
Bit rate                         : 384 Kbps
Channel(s)                       : 6 channels
Channel positions                : Front: L C R, Side: L R, LFE
Sampling rate                    : 48.0 KHz
Bit depth                        : 16 bits
Stream size                      : 259 MiB (10%)
Alignment                        : Aligned on interleaves
Interleave, duration             : 42 ms (1.00 video frame)
Interleave, preload duration     : 512 ms
Скриншоты:
Не жилим спасибо. Не забываем голосовать за трекер!!!


Показать сообщения:    

Текущее время: 24-Май 10:41

Часовой пояс: UTC + 3


Вы не можете начинать темы
Вы не можете отвечать на сообщения
Вы не можете редактировать свои сообщения
Вы не можете удалять свои сообщения
Вы не можете голосовать в опросах
Вы не можете прикреплять файлы к сообщениям
Вы не можете скачивать файлы

!ВНИМАНИЕ!
Сайт не предоставляет электронные версии произведений, а занимается лишь коллекционированием и каталогизацией ссылок, присылаемых и публикуемых на форуме нашими читателями. Если вы являетесь правообладателем какого-либо представленного материала и не желаете, чтобы ссылка на него находилась в нашем каталоге, свяжитесь с нами, и мы незамедлительно удалим ее. Файлы для обмена на трекере предоставлены пользователями сайта, и администрация не несет ответственности за их содержание. Просьба не заливать файлы, защищенные авторскими правами, а также файлы нелегального содержания!