۩ ‼ Вы находитесь на Бесплатном торрент-трекере TORRNADA.com ۩ Зарегистрируйтесь для получения полного доступа ко всем функциям сайта ! ۩ После регистрации подпишитесь на нашу рассылку в своём профиле ۩
Auto Web Pinger

 

[Цитировать]

Deva Premal & Miten with Manose - Songs For The Sangha (2015) - Год: 2015
Жанр: New age, Meditative
Продолжительность: 00:56:51
Кодек: FLAC
Битрейт: Lossless
Треклист:
1. Parameshwara Mantra (Deep in Love) - 14:03
2. Sarveshaam Mantra - 6:37
3. Ganapati Mantra (Strong My Roots) - 7:20
4. Karuna - 4:38
5. Brahma Gayatri Mantra - 7:45
6. Guru Mantra - 5:36
7. Draw Near Draw Near - 10:51

Отчёт ЕАС:

Exact Audio Copy V1.0 beta 3 from 29. August 2011
Отчёт EAC об извлечении, выполненном 10. июня 2015, 9:27
Deva Premal & Miten with Manose / Songs For The Sangha
Дисковод: ATAPI   iHAS122   E   Adapter: 0  ID: 1
Режим чтения                 : Достоверность
Использование точного потока : Да
Отключение кэша аудио        : Да
Использование указателей C2  : Нет
Коррекция смещения при чтении                     : 6
Способность читать области Lead-in и Lead-out     : Нет
Заполнение пропущенных сэмплов тишиной            : Да
Удаление блоков с тишиной в начале и конце        : Нет
При вычислениях CRC использовались нулевые сэмплы : Да
Интерфейс                                         : Встроенный Win32-интерфейс для Win NT/2000
Выходной формат          : Пользовательский кодировщик
Выбранный битрейт        : 896 kBit/s
Качество                 : Высокий
Добавление ID3-тега      : Да
Утилита сжатия           : C:\Program Files (x86)\FLAC Frontend\tools\flac.exe
Дополнительные параметры : -V -8 -T "Date=%year%" -T "Genre=%genre%" %source%
TOC извлечённого CD
     Трек |   Старт  | Длительность | Начальный сектор | Конечный сектор
    ---------------------------------------------------------------------
       1  |  0:00.00 |   14:03.35   |           0      |      63259
       2  | 14:03.35 |    6:36.46   |       63260      |      93005
       3  | 20:40.06 |    7:20.31   |       93006      |     126036
       4  | 28:00.37 |    4:38.33   |      126037      |     146919
       5  | 32:38.70 |    7:45.12   |      146920      |     181806
       6  | 40:24.07 |    5:36.17   |      181807      |     207023
       7  | 46:00.24 |   10:50.74   |      207024      |     255847
Характеристики диапазона извлечения и сообщения об ошибках
Выбранный диапазон
     Имя файла D:\Documents and Settings\All Users\Мои документы\Downloads\Deva Premal\Deva Premal & Miten with Manose - Songs For The Sangha.wav
     Пиковый уровень 100.0 %
     Скорость извлечения 9.2 X
     Качество диапазона 99.9 %
     CRC копии F7817B8B
     Копирование... OK
Ошибок не произошло
AccurateRip: сводка
Трек  1  отсутствует в базе данных
Трек  2  отсутствует в базе данных
Трек  3  отсутствует в базе данных
Трек  4  отсутствует в базе данных
Трек  5  отсутствует в базе данных
Трек  6  отсутствует в базе данных
Трек  7  отсутствует в базе данных
Ни одного трека нет в базе AccurateRip
Конец отчёта
==== Контрольная сумма отчёта 58ACFAF68DB68A948B76EF2B1680A67CEDFEA57664ADD94A32652ABBE3C298A8 ====

Отчёт auCDtect Task manager:

[code]-----------------------
DON'T MODIFY THIS FILE
-----------------------
PERFORMER: auCDtect Task Manager, ver. 1.6.0 RC1 build 1.6.0.1
Copyright (c) 2008-2010 y-soft. All rights reserved
http://y-soft.org
ANALYZER: auCDtect: CD records authenticity detector, version 0.8.2
Copyright (c) 2004 Oleg Berngardt. All rights reserved.
Copyright (c) 2004 Alexander Djourik. All rights reserved.
FILE: Deva Premal & Miten with Manose - Songs For The Sangha.flac
  Size: 352118523 Hash: DE22B611B52101A14349DE281E8ACEF1 Accuracy: -m0
  Conclusion: CDDA 99%
  Signature: 35DA20EF0BF0382A6A96869ACCBE304B854EE134
[/code]

Спектрограмма:

Не жилим спасибо. Не забываем голосовать за трекер!!!


Показать сообщения:    

Текущее время: 24-Май 21:59

Часовой пояс: UTC + 3


Вы не можете начинать темы
Вы не можете отвечать на сообщения
Вы не можете редактировать свои сообщения
Вы не можете удалять свои сообщения
Вы не можете голосовать в опросах
Вы не можете прикреплять файлы к сообщениям
Вы не можете скачивать файлы

!ВНИМАНИЕ!
Сайт не предоставляет электронные версии произведений, а занимается лишь коллекционированием и каталогизацией ссылок, присылаемых и публикуемых на форуме нашими читателями. Если вы являетесь правообладателем какого-либо представленного материала и не желаете, чтобы ссылка на него находилась в нашем каталоге, свяжитесь с нами, и мы незамедлительно удалим ее. Файлы для обмена на трекере предоставлены пользователями сайта, и администрация не несет ответственности за их содержание. Просьба не заливать файлы, защищенные авторскими правами, а также файлы нелегального содержания!