۩ ‼ Вы находитесь на Бесплатном торрент-трекере TORRNADA.com ۩ Зарегистрируйтесь для получения полного доступа ко всем функциям сайта ! ۩ После регистрации подпишитесь на нашу рассылку в своём профиле ۩
Auto Web Pinger

 

[Цитировать]

Формат: DVDRip-AVC, MKV, H.264, AC3
Режиссер: Игорь Усов
Жанр: мюзикл, комедия, история
Продолжительность: 01:21:15
Год выпуска: 1972
В ролях: Владлен Давыдов, Николай Трофимов, Наталья Фатеева, Виктор Кривонос, Евгений Шапин, Станислав Чекан, Елена Андерегг, Георгий Вицин, Людмила Гурченко, Марина Полицеймако, Сергей Филиппов, Николай Гаврилов, Андрей Давыдов, Пантелеймон Крымов, Дмитрий Зебров, Александр Жданов, Николай Полищук, Анатолий Столбов, Жанна Сухопольская
Описание: Музыкальная историческая комедия из эпохи Петра I. Нерадивого боярского сына царь посылает в Голландию учиться морскому делу. Но в науках преуспевает не знатный недоросль, а его крепостной холоп. Он-то и становится офицером по возвращении в Россию.

Видео: 712@564х759х564 (4:3), 25,000fps, AVC (x264) High@L4.1, ~ 2112 kbps avg, 0.210bit/pixel
Аудио: 48.0 kHz, AC3, (Front: L C R, Side: L R, LFE) , 6 ch 448Kbps avg

MediaInfo

General
Unique ID : 189357258858955225230261055136480460112 (0x8E74E1AA2368CF39A559C5042E2D7D50)
Complete name : E:\DOWNLOADS\Табачный капитан.1972.mkv
Format : Matroska
Format version : Version 2
File size : 1.45 GiB
Duration : 1h 21mn
Overall bit rate : 2 562 Kbps
Movie name : «Табачный капитан»
Encoded date : UTC 2014-03-18 07:39:49
Writing application : mkvmerge v5.8.0 ('No Sleep / Pillow') built on Sep 2 2012 15:37:04
Writing library : libebml v1.2.3 + libmatroska v1.3.0
Comment : DVDRip-AVC
Original date released : March 17th 2014
Encoded by : imgeorgest®
Video
ID : 1
Format : AVC
Format/Info : Advanced Video Codec
Format profile : High@L4.1
Format settings, CABAC : Yes
Format settings, ReFrames : 16 frames
Codec ID : V_MPEG4/ISO/AVC
Duration : 1h 21mn
Bit rate : 2 112 Kbps
Width : 712 pixels
Height : 564 pixels
Display aspect ratio : 4:3
Original display aspect rat : 4:3
Frame rate mode : Constant
Frame rate : 25.000 fps
Color space : YUV
Chroma subsampling : 4:2:0
Bit depth : 8 bits
Scan type : Progressive
Bits/(Pixel*Frame) : 0.210
Stream size : 1.17 GiB (81%)
Title : Табачный капитан.1972
Writing library : x264 core 130 r2273 b3065e6
Encoding settings : cabac=1 / ref=16 / deblock=1:-2:-2 / analyse=0x3:0x133 / me=umh / subme=11 / psy=1 / psy_rd=0.90:0.00 / mixed_ref=1 / me_range=32 / chroma_me=1 / trellis=2 / 8x8dct=1 / cqm=0 / deadzone=21,11 / fast_pskip=0 / chroma_qp_offset=-2 / threads=12 / lookahead_threads=3 / sliced_threads=0 / nr=0 / decimate=0 / interlaced=0 / bluray_compat=0 / constrained_intra=0 / bframes=16 / b_pyramid=2 / b_adapt=2 / b_bias=0 / direct=3 / weightb=1 / open_gop=0 / weightp=2 / keyint=250 / keyint_min=25 / scenecut=40 / intra_refresh=0 / rc_lookahead=60 / rc=2pass / mbtree=1 / bitrate=2112 / ratetol=1.0 / qcomp=0.70 / qpmin=0 / qpmax=32 / qpstep=4 / cplxblur=20.0 / qblur=0.5 / vbv_maxrate=50000 / vbv_bufsize=62500 / nal_hrd=none / ip_ratio=1.35 / aq=1:0.90
Language : Russian
Default : Yes
Forced : No
Color primaries : BT.601 PAL
Transfer characteristics : BT.470 System B, BT.470 System G
Matrix coefficients : BT.601
Color range : Limited
Audio
ID : 2
Format : AC-3
Format/Info : Audio Coding 3
Mode extension : CM (complete main)
Format settings, Endianness : Big
Codec ID : A_AC3
Duration : 1h 21mn
Bit rate mode : Constant
Bit rate : 448 Kbps
Channel(s) : 6 channels
Channel positions : Front: L C R, Side: L R, LFE
Sampling rate : 48.0 KHz
Bit depth : 16 bits
Compression mode : Lossy
Stream size : 260 MiB (17%)
Title : AC-3; 16 bit 48 Khz; 5.1 ch 448 Kbps; CBR
Language : Russian
Default : Yes
Forced : NoЗакрыть

Скриншоты анаморф




Закрыть

Показать скриншоты





Закрыть
Не жилим спасибо. Не забываем голосовать за трекер!!!


Показать сообщения:    

Текущее время: 19-Май 17:28

Часовой пояс: UTC + 3


Вы не можете начинать темы
Вы не можете отвечать на сообщения
Вы не можете редактировать свои сообщения
Вы не можете удалять свои сообщения
Вы не можете голосовать в опросах
Вы не можете прикреплять файлы к сообщениям
Вы не можете скачивать файлы

!ВНИМАНИЕ!
Сайт не предоставляет электронные версии произведений, а занимается лишь коллекционированием и каталогизацией ссылок, присылаемых и публикуемых на форуме нашими читателями. Если вы являетесь правообладателем какого-либо представленного материала и не желаете, чтобы ссылка на него находилась в нашем каталоге, свяжитесь с нами, и мы незамедлительно удалим ее. Файлы для обмена на трекере предоставлены пользователями сайта, и администрация не несет ответственности за их содержание. Просьба не заливать файлы, защищенные авторскими правами, а также файлы нелегального содержания!