۩ ‼ Вы находитесь на Бесплатном торрент-трекере TORRNADA.com ۩ Зарегистрируйтесь для получения полного доступа ко всем функциям сайта ! ۩ После регистрации подпишитесь на нашу рассылку в своём профиле ۩
Auto Web Pinger

 

[Цитировать]

Перевод: Профессиональный (полное дублирование), cубтитры: отсутствуют
Формат: WEBRip, MP4, H.264, AAC
Страна: США
Режиссер: Хезер Мартинес, Робб Прэтт
Жанр: мультфильм, фантастика, боевик, приключения, семейный
Продолжительность: 52 х ~ 00:22:00
Год выпуска: 2006-2009
Устройство: КПК
В ролях: Нэнси Картрайт, Грэй Гриффин, Джефф Беннетт, Кэт Сауси, Даран Норрис, Дэвид МакКаллум, Кэнди Мило, Лорен Том, Эрика Хаббард, Ди Брэдли Бэйкер
Описание: Тодд и Райли жили в приюте, не зная, что случилось с их биологическими родителями. Как то они находят журнал в котором был адрес агентства по за замене людей «Флимко». С помощью агентства они заменяют приют на новый дом с родителями: маму спецагента и отца каскадёра. А в качестве бонуса Тодд и Райли получают няню в лице шпионской машины и домашнего питомца… мула по кличке «Принц Ржавых Подков».
Вместе с новыми родителями агентство «Флимко» даёт им новые телефоны с секретной кнопкой F, нажатие на которою даёт возможность заменить кого угодно.


Видео: 854x480р (16:9), 25.000 fps, AVC MPEG4 (x264), Main@L3.0, ~ 598Kbps avg, 0.058 bit/pixel
Аудио: 44,1KHz, AAC-LC, 2ch, ~ 254 Kbps avg
Доп. информация: Данное видео предназначено для просмотра на КПК

Mediainfo

General
Complete name : D:\На замену\Сезон 1\Серия 1 - Игра Тодда _ Зажигательные девчонки (480p).mp4
Format : MPEG-4
Format profile : Base Media
Codec ID : isom
File size : 133 MiB
Duration : 21mn 42s
Overall bit rate : 858 Kbps
Writing application : Lavf55.49.100
Video
ID : 1
Format : AVC
Format/Info : Advanced Video Codec
Format profile : Main@L3.0
Format settings, CABAC : Yes
Format settings, ReFrames : 3 frames
Codec ID : avc1
Codec ID/Info : Advanced Video Coding
Duration : 21mn 42s
Bit rate : 598 Kbps
Width : 854 pixels
Height : 480 pixels
Display aspect ratio : 16:9
Frame rate mode : Constant
Frame rate : 25.000 fps
Color space : YUV
Chroma subsampling : 4:2:0
Bit depth : 8 bits
Scan type : Progressive
Bits/(Pixel*Frame) : 0.058
Stream size : 92.9 MiB (70%)
Audio
ID : 2
Format : AAC
Format/Info : Advanced Audio Codec
Format profile : LC
Codec ID : 40
Duration : 21mn 42s
Bit rate mode : Constant
Bit rate : 254 Kbps
Channel(s) : 2 channels
Channel positions : Front: L R
Sampling rate : 44.1 KHz
Compression mode : Lossy
Stream size : 39.4 MiB (30%)Закрыть

Показать скриншоты








Закрыть


Показать сообщения:    

Текущее время: 21-Май 07:34

Часовой пояс: UTC + 3


Вы не можете начинать темы
Вы не можете отвечать на сообщения
Вы не можете редактировать свои сообщения
Вы не можете удалять свои сообщения
Вы не можете голосовать в опросах
Вы не можете прикреплять файлы к сообщениям
Вы не можете скачивать файлы

!ВНИМАНИЕ!
Сайт не предоставляет электронные версии произведений, а занимается лишь коллекционированием и каталогизацией ссылок, присылаемых и публикуемых на форуме нашими читателями. Если вы являетесь правообладателем какого-либо представленного материала и не желаете, чтобы ссылка на него находилась в нашем каталоге, свяжитесь с нами, и мы незамедлительно удалим ее. Файлы для обмена на трекере предоставлены пользователями сайта, и администрация не несет ответственности за их содержание. Просьба не заливать файлы, защищенные авторскими правами, а также файлы нелегального содержания!