۩ ‼ Вы находитесь на Бесплатном торрент-трекере TORRNADA.com ۩ Зарегистрируйтесь для получения полного доступа ко всем функциям сайта ! ۩ После регистрации подпишитесь на нашу рассылку в своём профиле ۩
Auto Web Pinger

 

[Цитировать]

Название: Стиратель
Оригинальное название: Eraser
Год выпуска: 1996
Жанр: Боевик, триллер, драма, криминал, детектив
Выпущено: США, Warner Bros. Pictures Co.
Режиссер: Чак Расселл
В ролях: Арнольд Шварценеггер, Джеймс Каан, Ванесса Уильямс, Джеймс Коберн, Роберт Пасторелли, Джеймс Кромуэлл, Дэнни Нуччи, Энди Романо, Ник Чинланд, Майкл Пападжон, Джо Витерелли, Марк Ролстон, Джон Слэттери, Роберт Миранда, Рома Маффиа, Тони Лонго, Джерри Бекер, Джон Снайдер, Мелора Уолтерс, Олек Крупа, Силк Козарт, Рокко Систо, Джералд Бернс, Стивен Форд, Исмаэль ’Ист’ Карло, Томми Дж. Хафф, Рик Баталла, Майкл Грегори, Патрик Килпатрик, Джеймс Шорт, А.Дж. Нэй, Камрин Менхейм, Скипп Саддат, Энтони Фуско, Грегори МакКинни, Крэйг Барнетт, Кори Джошуа Тейлор, Рик Марзан, Брайан Либби, Дэнни Вайнандс, Дэвид Волос-Фонтено, Сонни Кинг, Эдвард Роте, Майк Кэмеро
О фильме: Джон Крюгер «стирает» из прошлого и настоящего все следы людей, находящихся под охраной Программы Защиты Свидетелей. Ему надо защищать женщину, которая готова разоблачить сделку по продаже преступникам нового супероружия. Крюгер должен спасти и её и себя, и начинается марафон не на жизнь, а на смерть, где ему предстоит прыгать с самолета вслед за парашютом, сражаться с аллигаторами, преодолевать суперсовременные системы безопасности и противостоять киллерам с новейшим оружием.
Качество: BDRip 1080p
Размер: 13.95 ГБ
Продолжительность: 01:54:31
Видео: MPEG-4 AVC, 11,2 Мбит/с, 1920x800
Аудио 1: русский, AC3, 384 kbps, 6 ch, 48 kHz [Дублированный]
Аудио 2: русский, AC3, 384 kbps, 6 ch, 48 kHz [Профессиональный многоголосый, HTB]
Аудио 3: русский, DTS, 1509 kbps, 6 ch, 48 kHz [Профессиональный многоголосый, Карусель]
Аудио 4: русский, DTS, 1509 kbps, 6 ch, 48 kHz [Авторский, Андрей Гаврилов]
Отдельные файлы
Аудио: русский, AC3, 192 kbps, 2 ch, 48 kHz [Дублированный, Варус видео]
Аудио: русский, AC3, 448 kbps, 6 ch, 48 kHz [Профессиональный многоголосый, Карусель]
Аудио: русский, AC3, 192 kbps, 2 ch, 48 kHz [Профессиональный многоголосый, Рен ТВ]
Аудио: русский, AC3, 448 kbps, 6 ch, 48 kHz [Авторский, Андрей Гаврилов]
Аудио: русский, AC3, 192 kbps, 2 ch, 48 kHz [Авторский, Сергей Визгунов]
Аудио: английский, AC3, 640 kbps, 6 ch, 48 kHz [Оригинал]
Имеются поименованные главы/чаптеры.
Сравнение с исходником

MediaInfo

+ Лог х264Общее
Полное имя : D:VideoStiratel.1996.BDRip.1080pStiratel.1996.AVO.rus.А.Гаврилов.ac3
Формат : AC-3
Формат/Информация : Audio Coding 3
Размер файла : 367 Мбайт
Продолжительность : 1 ч. 54 м.
Режим общего битрейта : Постоянный
Общий поток : 448 Кбит/сек
Аудио
Формат : AC-3
Формат/Информация : Audio Coding 3
Расширение режима : CM (complete main)
Параметр Endianness формата : Big
Продолжительность : 1 ч. 54 м.
Вид битрейта : Постоянный
Битрейт : 448 Кбит/сек
Каналы : 6 каналов
Расположение каналов : Front: L C R, Side: L R, LFE
Частота : 48,0 КГц
Битовая глубина : 16 бит
Метод сжатия : С потерями
Размер потока : 367 Мбайт (100%)
Общее
Полное имя : D:VideoStiratel.1996.BDRip.1080pStiratel.1996.AVO.rus.С.Визгунов.ac3
Формат : AC-3
Формат/Информация : Audio Coding 3
Размер файла : 157 Мбайт
Продолжительность : 1 ч. 54 м.
Режим общего битрейта : Постоянный
Общий поток : 192 Кбит/сек
Аудио
Формат : AC-3
Формат/Информация : Audio Coding 3
Расширение режима : CM (complete main)
Параметр Endianness формата : Big
Продолжительность : 1 ч. 54 м.
Вид битрейта : Постоянный
Битрейт : 192 Кбит/сек
Каналы : 2 канала
Расположение каналов : Front: L R
Частота : 48,0 КГц
Битовая глубина : 16 бит
Метод сжатия : С потерями
Размер потока : 157 Мбайт (100%)
Общее
Уникальный идентификатор : 231235906978277192100061431576184793459 (0xADF66A6E60324123A1BEB0B7CC8CA973)
Полное имя : D:VideoStiratel.1996.BDRip.1080pStiratel.1996.BDRip.1080p.mkv
Формат : Matroska
Версия формата : Version 4 / Version 2
Размер файла : 12,3 Гбайт
Продолжительность : 1 ч. 54 м.
Общий поток : 15,3 Мбит/сек
Дата кодирования : UTC 2014-09-18 05:24:31
Программа кодирования : mkvmerge v6.9.1 ('Blue Panther') 64bit built on Apr 18 2014 18:23:38
Библиотека кодирования : libebml v1.3.0 + libmatroska v1.4.1
Видео
Идентификатор : 1
Формат : AVC
Формат/Информация : Advanced Video Codec
Профиль формата : High@L4.1
Параметр CABAC формата : Да
Параметр ReFrames формата : 4 кадра
Идентификатор кодека : V_MPEG4/ISO/AVC
Продолжительность : 1 ч. 54 м.
Битрейт : 11,2 Мбит/сек
Ширина : 1920 пикселей
Высота : 800 пикселей
Соотношение сторон : 2,40:1
Режим частоты кадров : Постоянный
Частота кадров : 23,976 кадра/сек
Цветовое пространство : YUV
Субдискретизация насыщенности : 4:2:0
Битовая глубина : 8 бит
Тип развёртки : Прогрессивная
Бит/(Пиксели*Кадры) : 0.305
Размер потока : 8,99 Гбайт (73%)
Заголовок : BDRip -- STarankov
Библиотека кодирования : x264 core 142 r2431 ac76440
Настройки программы : cabac=1 / ref=4 / deblock=1:-1:-1 / analyse=0x3:0x113 / me=umh / subme=10 / psy=1 / psy_rd=1.00:0.15 / mixed_ref=1 / me_range=32 / chroma_me=1 / trellis=2 / 8x8dct=1 / cqm=0 / deadzone=21,11 / fast_pskip=0 / chroma_qp_offset=-3 / threads=6 / lookahead_threads=1 / sliced_threads=0 / nr=0 / decimate=1 / interlaced=0 / bluray_compat=0 / constrained_intra=0 / bframes=8 / b_pyramid=2 / b_adapt=2 / b_bias=0 / direct=1 / weightb=1 / open_gop=0 / weightp=2 / keyint=230 / keyint_min=23 / scenecut=40 / intra_refresh=0 / rc_lookahead=40 / rc=crf / mbtree=0 / crf=18.5 / qcomp=0.60 / qpmin=0 / qpmax=69 / qpstep=4 / vbv_maxrate=40000 / vbv_bufsize=50000 / crf_max=0.0 / nal_hrd=none / filler=0 / ip_ratio=1.40 / pb_ratio=1.30 / aq=1:1.00
Язык : English
Default : Да
Forced : Нет
Аудио #1
Идентификатор : 2
Формат : AC-3
Формат/Информация : Audio Coding 3
Расширение режима : CM (complete main)
Параметр Endianness формата : Big
Идентификатор кодека : A_AC3
Продолжительность : 1 ч. 54 м.
Вид битрейта : Постоянный
Битрейт : 384 Кбит/сек
Каналы : 6 каналов
Расположение каналов : Front: L C R, Side: L R, LFE
Частота : 48,0 КГц
Битовая глубина : 16 бит
Метод сжатия : С потерями
Размер потока : 315 Мбайт (3%)
Заголовок : DUB
Язык : Russian
Default : Да
Forced : Нет
Аудио #2
Идентификатор : 3
Формат : AC-3
Формат/Информация : Audio Coding 3
Расширение режима : CM (complete main)
Параметр Endianness формата : Big
Идентификатор кодека : A_AC3
Продолжительность : 1 ч. 54 м.
Вид битрейта : Постоянный
Битрейт : 384 Кбит/сек
Каналы : 6 каналов
Расположение каналов : Front: L C R, Side: L R, LFE
Частота : 48,0 КГц
Битовая глубина : 16 бит
Метод сжатия : С потерями
Размер потока : 315 Мбайт (3%)
Заголовок : MVO (HTB)
Язык : Russian
Default : Нет
Forced : Нет
Аудио #3
Идентификатор : 4
Формат : DTS
Формат/Информация : Digital Theater Systems
Режим : 16
Параметр Endianness формата : Big
Идентификатор кодека : A_DTS
Продолжительность : 1 ч. 54 м.
Вид битрейта : Постоянный
Битрейт : 1509 Кбит/сек
Каналы : 6 каналов
Расположение каналов : Front: L C R, Side: L R, LFE
Частота : 48,0 КГц
Битовая глубина : 24 бит
Метод сжатия : С потерями
Размер потока : 1,21 Гбайт (10%)
Заголовок : MVO (Карусель)
Язык : Russian
Default : Нет
Forced : Нет
Аудио #4
Идентификатор : 5
Формат : DTS
Формат/Информация : Digital Theater Systems
Режим : 16
Параметр Endianness формата : Big
Идентификатор кодека : A_DTS
Продолжительность : 1 ч. 54 м.
Вид битрейта : Постоянный
Битрейт : 1509 Кбит/сек
Каналы : 6 каналов
Расположение каналов : Front: L C R, Side: L R, LFE
Частота : 48,0 КГц
Битовая глубина : 24 бит
Метод сжатия : С потерями
Размер потока : 1,21 Гбайт (10%)
Заголовок : AVO (Андрей Гаврилов)
Язык : Russian
Default : Нет
Forced : Нет
Меню
00:00:00.000 : :Readying for Action (Credits)
00:02:42.249 : :Masked Rescuer
00:04:19.999 : :"Simle You've Just Been Erased"
00:08:32.708 : :Praise and Advice From the Teacher
00:11:29.749 : :The Hottest Since Iran Contra
00:12:28.082 : :Filching a File
00:17:54.666 : :Donahue's Desprate Move
00:20:38.207 : :Not a Walk in the Park
00:23:15.290 : :Switching the Music
00:24:22.666 : :Big Guns at Lees House
00:30:17.499 : :Lighting a Fuse
00:31:30.249 : :"Now Trust Me"
00:33:32.666 : :What Has to Be Done
00:34:51.082 : :Lee's New Identity
00:38:48.499 : :A Buddy-System Mission
00:43:23.666 : :Deadly Force
00:46:43.624 : :No Turning Back
00:48:16.249 : :Changing Course
00:50:58.499 : :Midair Shootout
00:53:30.874 : :Man and Chute Overboard
00:55:13.541 : :Out in the Open
00:57:11.833 : :Welcome to Earth
00:58:13.624 : :Happening at the Zoo
01:00:53.165 : :He's Here
01:01:33.582 : :Reptiles Aplenty
01:03:34.332 : :Death-Dealing Luggage
01:04:35.749 : :Nothing to Keep Him Honest
01:06:02.708 : :On Their Own
01:09:09.416 : :Johnny C's Place (It's Raining Men)
01:11:54.332 : :People You Cant Cancel On
01:13:14.666 : :Really Special Delivery
01:16:25.791 : :Jump-Starting Their Infiltration
01:20:15.874 : :The Disc's Contents
01:23:26.916 : :Deguerin's Rules Now
01:26:00.916 : :What Cousin Tony Didn't Know
01:27:47.374 : :"Come and Get Me"
01:29:39.040 : :Two Security Breaches
01:33:04.207 : :Running a High-Tech Gauntlet
01:34:44.749 : :Out of Some Tight Spots
01:37:13.124 : :Heavy Artillery
01:39:16.082 : :High and Low
01:42:25.499 : :Last Shot
01:44:47.999 : :Two Setups
01:49:23.332 : :End Credits (Caught a Train, Where Do We Go From Here?)
Общее
Полное имя : D:VideoStiratel.1996.BDRip.1080pStiratel.1996.DUB.rus.Варус видео.ac3
Формат : AC-3
Формат/Информация : Audio Coding 3
Размер файла : 157 Мбайт
Продолжительность : 1 ч. 54 м.
Режим общего битрейта : Постоянный
Общий поток : 192 Кбит/сек
Аудио
Формат : AC-3
Формат/Информация : Audio Coding 3
Расширение режима : CM (complete main)
Параметр Endianness формата : Big
Продолжительность : 1 ч. 54 м.
Вид битрейта : Постоянный
Битрейт : 192 Кбит/сек
Каналы : 2 канала
Расположение каналов : Front: L R
Частота : 48,0 КГц
Битовая глубина : 16 бит
Метод сжатия : С потерями
Размер потока : 157 Мбайт (100%)
Общее
Полное имя : D:VideoStiratel.1996.BDRip.1080pStiratel.1996.eng.srt
Формат : SubRip
Размер файла : 83,5 Кбайт
Текст
Формат : SubRip
Метод сжатия : Без потерь
Общее
Полное имя : D:VideoStiratel.1996.BDRip.1080pStiratel.1996.MVO.rus.Карусель.ac3
Формат : AC-3
Формат/Информация : Audio Coding 3
Размер файла : 367 Мбайт
Продолжительность : 1 ч. 54 м.
Режим общего битрейта : Постоянный
Общий поток : 448 Кбит/сек
Аудио
Формат : AC-3
Формат/Информация : Audio Coding 3
Расширение режима : CM (complete main)
Параметр Endianness формата : Big
Продолжительность : 1 ч. 54 м.
Вид битрейта : Постоянный
Битрейт : 448 Кбит/сек
Каналы : 6 каналов
Расположение каналов : Front: L C R, Side: L R, LFE
Частота : 48,0 КГц
Битовая глубина : 16 бит
Метод сжатия : С потерями
Размер потока : 367 Мбайт (100%)
Общее
Полное имя : D:VideoStiratel.1996.BDRip.1080pStiratel.1996.MVO.rus.Рен ТВ.ac3
Формат : AC-3
Формат/Информация : Audio Coding 3
Размер файла : 157 Мбайт
Продолжительность : 1 ч. 54 м.
Режим общего битрейта : Постоянный
Общий поток : 192 Кбит/сек
Аудио
Формат : AC-3
Формат/Информация : Audio Coding 3
Расширение режима : CM (complete main)
Параметр Endianness формата : Big
Продолжительность : 1 ч. 54 м.
Вид битрейта : Постоянный
Битрейт : 192 Кбит/сек
Каналы : 2 канала
Расположение каналов : Front: L R
Частота : 48,0 КГц
Битовая глубина : 16 бит
Метод сжатия : С потерями
Размер потока : 157 Мбайт (100%)
Общее
Полное имя : D:VideoStiratel.1996.BDRip.1080pStiratel.1996.Original.eng.ac3
Формат : AC-3
Формат/Информация : Audio Coding 3
Размер файла : 524 Мбайт
Продолжительность : 1 ч. 54 м.
Режим общего битрейта : Постоянный
Общий поток : 640 Кбит/сек
Аудио
Формат : AC-3
Формат/Информация : Audio Coding 3
Расширение режима : CM (complete main)
Параметр Endianness формата : Big
Продолжительность : 1 ч. 54 м.
Вид битрейта : Постоянный
Битрейт : 640 Кбит/сек
Каналы : 6 каналов
Расположение каналов : Front: L C R, Side: L R, LFE
Частота : 48,0 КГц
Битовая глубина : 16 бит
Метод сжатия : С потерями
Размер потока : 524 Мбайт (100%)
Общее
Полное имя : D:VideoStiratel.1996.BDRip.1080pStiratel.1996.rus.srt
Формат : SubRip
Размер файла : 97,9 Кбайт
Текст
Формат : SubRip
Метод сжатия : Без потерь
---[Information] [17.09.2014 23:44:13] raw [info]: 1920x800p 1:1 @ 24000/1001 fps (cfr)
---[Information] [17.09.2014 23:44:13] x264 [info]: using SAR=1/1
---[Information] [17.09.2014 23:44:13] x264 [info]: using cpu capabilities: MMX2 SSE2Fast SSSE3 SSE4.2
---[Information] [17.09.2014 23:44:13] x264 [info]: profile High, level 4.1
---[Information] [18.09.2014 10:44:21] x264 [info]: frame I:1278 Avg QP:16.27 size:190174
---[Information] [18.09.2014 10:44:21] avs [info]: AviSynth 2.60, build:May 25 2011 [19:58:41]
---[Information] [18.09.2014 10:44:21] x264 [info]: frame P:37522 Avg QP:17.11 size: 92202
---[Information] [18.09.2014 10:44:21] avs [info]: Video colorspace: YV12
---[Information] [18.09.2014 10:44:21] x264 [info]: frame B:125956 Avg QP:19.23 size: 49329
---[Information] [18.09.2014 10:44:21] x264 [info]: consecutive B-frames: 2.1% 4.1% 6.2% 31.1% 14.3% 32.3% 7.0% 2.2% 0.8%
---[Information] [18.09.2014 10:44:21] avs [info]: Video resolution: 1920x800
---[Information] [18.09.2014 10:44:21] avs [info]: Video framerate: 24000/1001
---[Information] [18.09.2014 10:44:21] x264 [info]: mb I I16..4: 20.5% 66.0% 13.5%
---[Information] [18.09.2014 10:44:21] x264 [info]: mb P I16..4: 3.9% 44.0% 2.7% P16..4: 22.6% 16.6% 5.8% 0.0% 0.0% skip: 4.4%
---[Information] [18.09.2014 10:44:21] avs [info]: Video framecount: 164756
---[Information] [18.09.2014 10:44:21] avs4x264 [info]: "x264_64" - --level 4.1 --tune film --crf 18.5 --keyint 230 --bframes 8 --b-adapt 2 --ref 4 --vbv-bufsize 50000 --vbv-maxrate 40000 --no-mbtree --merange 32 --me umh --subme 10 --trellis 2 --no-fast-pskip --sar 1:1 --output D:RipStiratel.1996.BDRipStiratel.1996.BDRip.1080p.mkv --frames 164756 --fps 24000/1001 --input-res 1920x800 --input-csp i420
---[Information] [18.09.2014 10:44:21] x264 [info]: mb B I16..4: 0.6% 5.6% 0.2% B16..8: 43.6% 14.7% 2.9% direct:13.2% skip:19.1% L0:41.6% L1:41.1% BI:17.2%
---[Information] [18.09.2014 10:44:21] x264 [info]: 8x8 transform intra:86.2% inter:52.8%
---[Information] [18.09.2014 10:44:21] x264 [info]: coded y,uvDC,uvAC intra: 94.0% 92.0% 78.6% inter: 47.0% 43.5% 16.8%
---[Information] [18.09.2014 10:44:21] x264 [info]: i16 v,h,dc,p: 18% 7% 17% 57%
---[Information] [18.09.2014 10:44:21] x264 [info]: i8 v,h,dc,ddl,ddr,vr,hd,vl,hu: 11% 10% 16% 8% 9% 10% 10% 11% 13%
---[Information] [18.09.2014 10:44:21] x264 [info]: i4 v,h,dc,ddl,ddr,vr,hd,vl,hu: 10% 11% 6% 9% 13% 13% 14% 10% 14%
---[Information] [18.09.2014 10:44:21] x264 [info]: i8c dc,h,v,p: 50% 18% 17% 15%
---[Information] [18.09.2014 10:44:21] x264 [info]: Weighted P-Frames: Y:4.0% UV:2.4%
---[Information] [18.09.2014 10:44:21] x264 [info]: ref P L0: 53.3% 10.7% 22.7% 12.3% 0.9% 0.0%
---[Information] [18.09.2014 10:44:21] x264 [info]: ref B L0: 86.5% 10.8% 2.7%
---[Information] [18.09.2014 10:44:21] x264 [info]: ref B L1: 91.3% 8.7%
---[Information] [18.09.2014 10:44:21] x264 [info]: kb/s:11544.05
---[Information] [18.09.2014 10:44:21] encoded 164756 frames, 4.16 fps, 11544.05 kb/s
--[Information] [18.09.2014 10:44:21] Final statistics
---[Information] [18.09.2014 10:44:21] Constant Quality Mode: Quality 18 computed...
---[Information] [18.09.2014 10:44:21] Video Bitrate Obtained (approximate): 11545 kbit/s
--[Information] [18.09.2014 10:44:21] MediaInfo
---[Information] [18.09.2014 10:44:21] File: D:RipStiratel.1996.BDRipStiratel.1996.BDRip.1080p.mkv

Скриншоты:

Не жилим спасибо. Не забываем голосовать за трекер!!!


Показать сообщения:    

Текущее время: 21-Май 08:24

Часовой пояс: UTC + 3


Вы не можете начинать темы
Вы не можете отвечать на сообщения
Вы не можете редактировать свои сообщения
Вы не можете удалять свои сообщения
Вы не можете голосовать в опросах
Вы не можете прикреплять файлы к сообщениям
Вы не можете скачивать файлы

!ВНИМАНИЕ!
Сайт не предоставляет электронные версии произведений, а занимается лишь коллекционированием и каталогизацией ссылок, присылаемых и публикуемых на форуме нашими читателями. Если вы являетесь правообладателем какого-либо представленного материала и не желаете, чтобы ссылка на него находилась в нашем каталоге, свяжитесь с нами, и мы незамедлительно удалим ее. Файлы для обмена на трекере предоставлены пользователями сайта, и администрация не несет ответственности за их содержание. Просьба не заливать файлы, защищенные авторскими правами, а также файлы нелегального содержания!