۩ ‼ Вы находитесь на Бесплатном торрент-трекере TORRNADA.com ۩ Зарегистрируйтесь для получения полного доступа ко всем функциям сайта ! ۩ После регистрации подпишитесь на нашу рассылку в своём профиле ۩
Auto Web Pinger

 

[Цитировать]

2015 ITTF World Tour Korea Open. Incheon, KOR Год выпуска: 04-05.07.2015
Вид спорта: Настольный теннис
Комментарий: Профессиональный
Язык комментариев: Русский (Анастасия Кольцова, Дмитрий Терехов) / Английский-Описание: 2015 ITTF World Tour Korea Open. Incheon, KOR. Мужчины, Женщины. Личные четвертьфиналы и финалы.-Автор рипа: sanchez2011
Eurosport HD 13E
Качество: HDTV
Формат: TS
Видео кодек: AVC
Аудио кодек: MP2
Видео: MPEG4 Video (H264) 1920x1080 (16:9) 25fps 9263kbps
Аудио 1-2: MPEG Audio 48000Hz stereo 192kbps (Русский, Английский)
Eurosport HD НТВ-Плюс
Качество: HDTV
Формат: TS
Видео кодек: AVC
Аудио кодек: MP2
Видео: MPEG4 Video (H264) 1920x1080 (16:9) 25fps 6662kbps
Аудио 1-2: MPEG Audio 48000Hz stereo 192kbps (Русский, Английский)

Скриншоты

MediaInfo

Eurosport HD 13E

General
ID : 1 (0x1)
Complete name : F:\Table Tennis\2015 ITTF WORLD TOUR KOREA OPEN EUROSPORT HD\05 WS F FUKUHARA Ai JPN - ITO Mima JPN.ts
Format : MPEG-TS
File size : 1.84 GiB
Duration : 25mn 54s
Overall bit rate mode : Variable
Overall bit rate : 10.2 Mbps
Video
ID : 3000 (0xBB8)
Menu ID : 13064 (0x3308)
Format : AVC
Format/Info : Advanced Video Codec
Format profile : High@L4.0
Format settings, CABAC : Yes
Format settings, ReFrames : 4 frames
Format settings, GOP : M=8, N=24
Codec ID : 27
Duration : 25mn 54s
Bit rate : 9 262 Kbps
Width : 1 920 pixels
Height : 1 080 pixels
Display aspect ratio : 16:9
Frame rate : 25.000 fps
Color space : YUV
Chroma subsampling : 4:2:0
Bit depth : 8 bits
Scan type : MBAFF
Scan order : Top Field First
Bits/(Pixel*Frame) : 0.179
Stream size : 1.68 GiB (91%)
Color primaries : BT.709
Transfer characteristics : BT.709
Matrix coefficients : BT.709
Color range : Limited
Audio #1
ID : 3201 (0xC81)
Menu ID : 13064 (0x3308)
Format : MPEG Audio
Format version : Version 1
Format profile : Layer 2
Codec ID : 3
Duration : 25mn 54s
Bit rate mode : Constant
Bit rate : 192 Kbps
Channel(s) : 2 channels
Sampling rate : 48.0 KHz
Compression mode : Lossy
Stream size : 35.6 MiB (2%)
Language : Russian
Audio #2
ID : 3202 (0xC82)
Menu ID : 13064 (0x3308)
Format : MPEG Audio
Format version : Version 1
Format profile : Layer 2
Codec ID : 3
Duration : 25mn 54s
Bit rate mode : Constant
Bit rate : 192 Kbps
Channel(s) : 2 channels
Sampling rate : 48.0 KHz
Compression mode : Lossy
Stream size : 35.6 MiB (2%)
Language : English

Eurosport HD НТВ-Плюс

General
ID : 1 (0x1)
Complete name : F:\Table Tennis\2015 ITTF WORLD TOUR KOREA OPEN EUROSPORT HD\01 MS QF HACHARD Antoine FRA - HANG Woojin KOR.ts
Format : MPEG-TS
File size : 1.93 GiB
Duration : 37mn 14s
Overall bit rate mode : Variable
Overall bit rate : 7 417 Kbps
Video
ID : 324 (0x144)
Menu ID : 12104 (0x2F48)
Format : AVC
Format/Info : Advanced Video Codec
Format profile : Main@L4.0
Format settings, CABAC : Yes
Format settings, ReFrames : 4 frames
Codec ID : 27
Duration : 37mn 14s
Bit rate : 6 662 Kbps
Width : 1 920 pixels
Height : 1 080 pixels
Display aspect ratio : 16:9
Frame rate : 25.000 fps
Standard : Component
Color space : YUV
Chroma subsampling : 4:2:0
Bit depth : 8 bits
Scan type : Interlaced
Scan order : Top Field First
Bits/(Pixel*Frame) : 0.129
Stream size : 1.73 GiB (90%)
Color primaries : BT.709
Transfer characteristics : BT.709
Matrix coefficients : BT.709
Color range : Limited
Audio #1
ID : 404 (0x194)
Menu ID : 12104 (0x2F48)
Format : MPEG Audio
Format version : Version 1
Format profile : Layer 2
Codec ID : 3
Duration : 37mn 14s
Bit rate mode : Constant
Bit rate : 192 Kbps
Channel(s) : 2 channels
Sampling rate : 48.0 KHz
Compression mode : Lossy
Delay relative to video : -120ms
Stream size : 51.1 MiB (3%)
Language : Russian
Audio #2
ID : 405 (0x195)
Menu ID : 12104 (0x2F48)
Format : MPEG Audio
Format version : Version 1
Format profile : Layer 2
Codec ID : 3
Duration : 37mn 14s
Bit rate mode : Constant
Bit rate : 192 Kbps
Channel(s) : 2 channels
Sampling rate : 48.0 KHz
Compression mode : Lossy
Delay relative to video : -120ms
Stream size : 51.1 MiB (3%)
Language : English

Список встреч

ЖЕНЩИНЫ
ЧЕТВЕРТЬФИНАЛ
SATO Hitomi JPN - CHOI Hyojoo KOR - полный
SHAN Xiaona GER - SEO Hyowon KOR - последняя партия
ФИНАЛ
FUKUHARA Ai JPN - ITO Mima JPN - полный
МУЖЧИНЫ
ЧЕТВЕРТЬФИНАЛ
HACHARD Antoine FRA - HANG Woojin KOR - без первых двух партий
YOSHIDA Masaki JPN - NIWA Koki JPN - полный
ФИНАЛ
JOO Saehyuk KOR - JUNG Youngsik KOR - полный

Продолжительность встреч

Общая продолжительность: 03:30:15
ЖЕНЩИНЫ
ЧЕТВЕРТЬФИНАЛ
SATO Hitomi JPN - CHOI Hyojoo KOR (00:51:38)
SHAN Xiaona GER - SEO Hyowon KOR (00:08:41)
ФИНАЛ
FUKUHARA Ai JPN - ITO Mima JPN (00:25:54)
МУЖЧИНЫ
ЧЕТВЕРТЬФИНАЛ
HACHARD Antoine FRA - HANG Woojin KOR (00:36:40)
YOSHIDA Masaki JPN - NIWA Koki JPN (00:44:11)
ФИНАЛ
JOO Saehyuk KOR - JUNG Youngsik KOR (00:43:08)

Результаты

ЖЕНЩИНЫ
ЧЕТВЕРТЬФИНАЛ
SATO Hitomi JPN - CHOI Hyojoo KOR
(1-4) 11:8, 9:11, 6:11, 6:11, 5:11
SHAN Xiaona GER - SEO Hyowon KOR
(4-3) 11:5, 14:16, 11:6, 11:8, 9:11, 8:11, 11:4
ФИНАЛ
FUKUHARA Ai JPN - ITO Mima JPN
(4-0) 11:6, 11:7, 12:10, 11:4
МУЖЧИНЫ
ЧЕТВЕРТЬФИНАЛ
HACHARD Antoine FRA - HANG Woojin KOR
(2-4) 6:11, 12:10, 5:11, 11:8, 9:11, 10:12
YOSHIDA Masaki JPN - NIWA Koki JPN
(1-4) 4:11, 11:9, 9:11, 10:12, 11:13
ФИНАЛ
JOO Saehyuk KOR - JUNG Youngsik KOR
(1-4) 9:11, 1:11, 11:9, 9:11, 8:11
Не жилим спасибо. Не забываем голосовать за трекер!!!


Показать сообщения:    

Текущее время: 23-Май 06:01

Часовой пояс: UTC + 3


Вы не можете начинать темы
Вы не можете отвечать на сообщения
Вы не можете редактировать свои сообщения
Вы не можете удалять свои сообщения
Вы не можете голосовать в опросах
Вы не можете прикреплять файлы к сообщениям
Вы не можете скачивать файлы

!ВНИМАНИЕ!
Сайт не предоставляет электронные версии произведений, а занимается лишь коллекционированием и каталогизацией ссылок, присылаемых и публикуемых на форуме нашими читателями. Если вы являетесь правообладателем какого-либо представленного материала и не желаете, чтобы ссылка на него находилась в нашем каталоге, свяжитесь с нами, и мы незамедлительно удалим ее. Файлы для обмена на трекере предоставлены пользователями сайта, и администрация не несет ответственности за их содержание. Просьба не заливать файлы, защищенные авторскими правами, а также файлы нелегального содержания!