۩ ‼ Вы находитесь на Бесплатном торрент-трекере TORRNADA.com ۩ Зарегистрируйтесь для получения полного доступа ко всем функциям сайта ! ۩ После регистрации подпишитесь на нашу рассылку в своём профиле ۩
Auto Web Pinger

 

[Цитировать]

Rise of The Tomb Raider (2015) WEBRip [H.264/720p-LQ] [Gameplay Demo]- Производство: Crystal Dynamics, Eidos Montral
Жанр: action
Платформа: X360, XONE
Издатель: Microsoft Game Studios, Square Enix
Дата выхода:10 ноября 2015 г.
Описание:
Наблюдать за Rise of the Tomb Raider интереснее, чем за большинством проектов этой E3, потому что с ней все очень неоднозначно. Последняя часть приключений Лары Крофт вышла хорошей, но достаточно спорной игрой. Драматическая составляющая в ней, по мнению многих, оказалась совершенно провальной. Экшен-сцены слишком напоминали Uncharted, а преданных фанатов сериала не устроило количество перестрелок — мол, это уже не расхищение гробниц, а штурм.
Но при этом в Tomb Raider оставался потенциал для того, чтобы сделать игру достаточно самобытной, не скатываться в копирование чужих идей. Благодаря обилию критики у разработчиков есть шанс в этот раз все сделать правильно. К несчастью, пока сложно сказать, удается ли им это.
Качество видео: WEBRip
Перевод: Отсутствует
Продолжительность:00:20:59
Видео: AVC/H.264, 1280х720, ~2268 Кбит/сек
Аудио: AAC, 2 ch, 192 Кбит/сек

Mediainfo:

Общее
Полное имя                               : C:\Users\Антон\Downloads\Rise of The Tomb Raider Walkthrough Part 1 Developer Gameplay Rise of Tomb Raider Let's play.mp4
Формат                                   : MPEG-4
Профиль формата                          : Base Media / Version 2
Идентификатор кодека                     : mp42
Размер файла                             : 370 Мбайт
Продолжительность                        : 20 м.
Режим общего битрейта                    : Переменный
Общий поток                              : 2462 Кбит/сек
Дата кодирования                         : UTC 2015-06-20 15:40:03
Дата пометки                             : UTC 2015-06-20 15:40:03
gsst                                     : 0
gstd                                     : 1259078
gssd                                     : BADC23AECHM1437428291102985
gshh                                     : r12---sn-n8v7lnes.googlevideo.com
Видео
Идентификатор                            : 1
Формат                                   : AVC
Формат/Информация                        : Advanced Video Codec
Профиль формата                          : High@L3.1
Параметр CABAC формата                   : Да
Параметр ReFrames формата                : 1 кадр
Идентификатор кодека                     : avc1
Идентификатор кодека/Информация          : Advanced Video Coding
Продолжительность                        : 20 м.
Битрейт                                  : 2268 Кбит/сек
Максимальный битрейт                     : 4749 Кбит/сек
Ширина                                   : 1280 пикселей
Высота                                   : 720 пикселей
Соотношение сторон                       : 16:9
Режим частоты кадров                     : Постоянный
Частота кадров                           : 29,970 кадров/сек
Цветовое пространство                    : YUV
Субдискретизация насыщенности            : 4:2:0
Битовая глубина                          : 8 бит
Тип развёртки                            : Прогрессивная
Бит/(Пиксели*Кадры)                      : 0.082
Размер потока                            : 340 Мбайт (92%)
Дата пометки                             : UTC 2015-06-20 15:40:15
Аудио
Идентификатор                            : 2
Формат                                   : AAC
Формат/Информация                        : Advanced Audio Codec
Профиль формата                          : LC
Идентификатор кодека                     : 40
Продолжительность                        : 20 м.
Вид битрейта                             : Переменный
Битрейт                                  : 192 Кбит/сек
Максимальный битрейт                     : 201 Кбит/сек
Каналы                                   : 2 канала
Расположение каналов                     : Front: L R
Частота                                  : 44,1 КГц
Метод сжатия                             : С потерями
Размер потока                            : 28,8 Мбайт (8%)
Заголовок                                : IsoMedia File Produced by Google, 5-11-2011
Язык                                     : English
Дата кодирования                         : UTC 2015-06-20 15:40:12
Дата пометки                             : UTC 2015-06-20 15:40:15
Скриншоты:
Не жилим спасибо. Не забываем голосовать за трекер!!!

Топик был перенесен из форума Трейлеры к играм в форум Архив "Кино, Сериалы, Мультфильмы"
Samson450173


Показать сообщения:    

Текущее время: 23-Май 06:47

Часовой пояс: UTC + 3


Вы не можете начинать темы
Вы не можете отвечать на сообщения
Вы не можете редактировать свои сообщения
Вы не можете удалять свои сообщения
Вы не можете голосовать в опросах
Вы не можете прикреплять файлы к сообщениям
Вы не можете скачивать файлы

!ВНИМАНИЕ!
Сайт не предоставляет электронные версии произведений, а занимается лишь коллекционированием и каталогизацией ссылок, присылаемых и публикуемых на форуме нашими читателями. Если вы являетесь правообладателем какого-либо представленного материала и не желаете, чтобы ссылка на него находилась в нашем каталоге, свяжитесь с нами, и мы незамедлительно удалим ее. Файлы для обмена на трекере предоставлены пользователями сайта, и администрация не несет ответственности за их содержание. Просьба не заливать файлы, защищенные авторскими правами, а также файлы нелегального содержания!