۩ ‼ Вы находитесь на Бесплатном торрент-трекере TORRNADA.com ۩ Зарегистрируйтесь для получения полного доступа ко всем функциям сайта ! ۩ После регистрации подпишитесь на нашу рассылку в своём профиле ۩
Auto Web Pinger

 

[Цитировать]

Отель «Мэриголд». Заселение продолжается / The Second Best Exotic Marigold Hotel (2015) BDRip- Производство: Великобритания, США / Blueprint Pictures
Жанр: драма, комедия
Режиссер: Джон Мэдден
Продюсер: Грэхэм Броадбент, Питер Чернин, Майкл Дрейер
Актеры: Дев Патель, Мэгги Смит, Дэнни Махони, Ричард Гир, Селия Имри, Рональд Пикап, Дэвид Стрэтэйрн, Джуди Денч, Билл Найи, Диана Хардкэсл, Сабхраджоти Барат
Описание:
Отель «Мэриголд» не был бы экзотическим, если бы не поселил двух незнакомых друг с другом людей в один номер; и он не стал бы лучшим, если бы из этого не произошло ничего хорошего.

Рейтинг MPAA: - рекомендуется присутствие родителей
Дата мировой премьеры: 26 февраля 2015
Дата российской премьеры: 12 марта 2015, «Двадцатый Век Фокс СНГ»
Релиз от: bog3417
Продолжительность: 02:02:40
Качество: BDRip (исх. BDRemux 1080p)
Перевод: профессиональный (полное дублирование) (Лицензия BD EUR)
Субтитры: Вшитые, не отключаемые
Язык субтитров: Русский (Форсированные)
Видео: XviD, 2084 Кбит/с, 720x304
Аудио: Русский AC3, 6 ch, 448 Кбит/с

MediaInfo

General
Complete name                            : The.Second.Best.Exotic.Marigold.Hotel.2015.448.BDRip.2.18.avi
Format                                   : AVI
Format/Info                              : Audio Video Interleave
Format profile                           : OpenDML
File size                                : 2.18 GiB
Duration                                 : 2h 2mn
Overall bit rate                         : 2 547 Kbps
Writing application                      : VirtualDubModRus 1.5.10.2 (build 2542/release)
Writing library                          : VirtualDubMod build 2542/release
Video
ID                                       : 0
Format                                   : MPEG-4 Visual
Format profile                           : Advanced Simple@L5
Format settings, BVOP                    : 1
Format settings, QPel                    : No
Format settings, GMC                     : No warppoints
Format settings, Matrix                  : Custom
Codec ID                                 : XVID
Codec ID/Hint                            : XviD
Duration                                 : 2h 2mn
Bit rate                                 : 2 087 Kbps
Width                                    : 720 pixels
Height                                   : 304 pixels
Display aspect ratio                     : 2.35:1
Frame rate                               : 23.976 fps
Color space                              : YUV
Chroma subsampling                       : 4:2:0
Bit depth                                : 8 bits
Scan type                                : Progressive
Compression mode                         : Lossy
Bits/(Pixel*Frame)                       : 0.398
Stream size                              : 1.79 GiB (82%)
Writing library                          : XviD 73
Audio
ID                                       : 1
Format                                   : AC-3
Format/Info                              : Audio Coding 3
Mode extension                           : CM (complete main)
Format settings, Endianness              : Big
Codec ID                                 : 2000
Duration                                 : 2h 2mn
Bit rate mode                            : Constant
Bit rate                                 : 448 Kbps
Channel count                            : 6 channels
Channel positions                        : Front: L C R, Side: L R, LFE
Sampling rate                            : 48.0 KHz
Bit depth                                : 16 bits
Compression mode                         : Lossy
Stream size                              : 393 MiB (18%)
Alignment                                : Split accross interleaves
Interleave, duration                     : 42 ms (1.00 video frame)
Interleave, preload duration             : 500 ms

Знаете ли вы, что...

• В трейлере Эвелин (Джуди Денч) заявляет, что Мюриэль (Мэгги Смит) всего лишь на 19 дней старше нее. В реальной жизни Мэгги Смит на 19 дней моложе Джуди Денч.

Ошибки в фильме

• В начале фильма герои едут по Route 66 и затем оказываются в Сан-Диего. Это шоссе заканчивается в Лос-Анджелесе, а не в Сан-Диего.
Скриншоты:
Не жилим спасибо. Не забываем голосовать за трекер!!!


Показать сообщения:    

Текущее время: 20-Май 15:37

Часовой пояс: UTC + 3


Вы не можете начинать темы
Вы не можете отвечать на сообщения
Вы не можете редактировать свои сообщения
Вы не можете удалять свои сообщения
Вы не можете голосовать в опросах
Вы не можете прикреплять файлы к сообщениям
Вы не можете скачивать файлы

!ВНИМАНИЕ!
Сайт не предоставляет электронные версии произведений, а занимается лишь коллекционированием и каталогизацией ссылок, присылаемых и публикуемых на форуме нашими читателями. Если вы являетесь правообладателем какого-либо представленного материала и не желаете, чтобы ссылка на него находилась в нашем каталоге, свяжитесь с нами, и мы незамедлительно удалим ее. Файлы для обмена на трекере предоставлены пользователями сайта, и администрация не несет ответственности за их содержание. Просьба не заливать файлы, защищенные авторскими правами, а также файлы нелегального содержания!