۩ ‼ Вы находитесь на Бесплатном торрент-трекере TORRNADA.com ۩ Зарегистрируйтесь для получения полного доступа ко всем функциям сайта ! ۩ После регистрации подпишитесь на нашу рассылку в своём профиле ۩
Auto Web Pinger

 

[Цитировать]

Информация о фильме
Название: Воскресенье, половина седьмого
Год выхода: 1988
Жанр: Приключенческий детектив
Режиссер: Вадим Зобин
В ролях: Василий Фунтиков, Андрей Степанов, Владимир Юматов, Елена Костина, Гелена Кирик, Маргарита Борисова, Маргарита Шубина, Владимир Ильин, Георгий Клюев, Виталий Тараничев, Михаил Палатник, Елена Крейдик, Марина Пресс, Петр Ступин, Владимир Топцов, Владимир Зайцев, Анатолий Иванов, Галина Анисимова, Галина Булкина, Сергей Быстрицкий, Елена Богданова, Алексей Ванин, Майя Ивашкевич, Галина Комарова, Антонина Кончакова, Наталья Назарова, Даниил Нетребин, Светлана Николаева, Павел Ремезов, Владимир Суворов, Игорь Фокин, Валентин Буров, Николай Волков, Галина Гладкова, Галина Добровольская, Марина Зотова, Виктор Карташов, Владимир Николенко, Клавдия Козлёнкова, Александр Пермяков, Наташа Гаврилова, Нелли Корнеева
О фильме: Студент-практикант юридического факультета Сергей Крашенинников расследует дело о гибели девушки Сони Смирновой. Казалось бы, всё говорит о том, что смерть девушки – результат несчастного случая. Но, ведя бескомпромиссную борьбу за истину, Сергей устанавливает, что Соня погибла по другой причине...
Доп. информация: Четырёхсерийный телевизионный фильм, снятый в 1988 году по сценарию Анатолия Рыбакова как продолжение фильмов "Каникулы Кроша" (1980) и "Неизвестный солдат" (1984). Производство - ТО "Экран".
Страна: СССР
Продолжительность: 4 x ~ 01:10:00
Перевод: не требуется
Файл
Кодек: MKV
Качество: DVDRip-AVC
Видео: MPEG-4 AVC, 2400 Кбит/с, 716x574@763x574
Звук: AC3, 2 ch, 192 Кбит/с

Скриншоты


Медиа-Инфо

raw [info]: 716x574p 16:15 @ 25/1 fps (cfr)
x264 [info]: using SAR=16/15
x264 [info]: using cpu capabilities: MMX2 SSE2Fast SSSE3 SSE4.2 AVX
x264 [info]: profile High, level 4.1
x264 [info]: frame I:525 Avg QP:16.66 size: 62386
x264 [info]: frame P:25533 Avg QP:19.46 size: 26870
x264 [info]: frame B:83757 Avg QP:20.90 size: 7151
=============================================================================================================
Общее
Уникальный идентификатор : 246974264160761740713898713201021671180 (0xB9CD835979742A879D47F0AC62DDD70C)
Полное имя : R:МОИ РИПЫВоскресенье, половина седьмого_1988-DVDRip-AVCКрош-1.mkv
Формат : Matroska
Версия формата : Version 2
Размер файла : 1,33 Гбайт
Продолжительность : 1 ч. 13 м.
Общий поток : 2594 Кбит/сек
Дата кодирования : UTC 2015-07-22 16:22:36
Программа кодирования : mkvmerge v5.8.0 ('No Sleep / Pillow') built on Sep 2 2012 15:37:04
Библиотека кодирования : libebml v1.2.3 + libmatroska v1.3.0
Видео
Идентификатор : 1
Формат : AVC
Формат/Информация : Advanced Video Codec
Профиль формата : High@L4.1
Параметр CABAC формата : Да
Параметр ReFrames формата : 13 кадров
Идентификатор кодека : V_MPEG4/ISO/AVC
Продолжительность : 1 ч. 13 м.
Битрейт : 2400 Кбит/сек
Ширина : 716 пикселей
Высота : 574 пикселя
Соотношение сторон : 4:3
Соотношение сторон в оригинале : 4:3
Режим частоты кадров : Постоянный
Частота кадров : 25,000 кадров/сек
Цветовое пространство : YUV
Субдискретизация насыщенности : 4:2:0
Битовая глубина : 8 бит
Тип развёртки : Прогрессивная
Бит/(Пиксели*Кадры) : 0.234
Размер потока : 1,20 Гбайт (91%)
Библиотека кодирования : x264 core 146 r2538 121396c
Настройки программы : cabac=1 / ref=13 / deblock=1:-2:-2 / analyse=0x3:0x133 / me=umh / subme=10 / psy=1 / psy_rd=1.05:0.16 / mixed_ref=1 / me_range=32 / chroma_me=1 / trellis=2 / 8x8dct=1 / cqm=0 / deadzone=21,11 / fast_pskip=0 / chroma_qp_offset=-3 / threads=12 / lookahead_threads=2 / sliced_threads=0 / nr=0 / decimate=0 / interlaced=0 / bluray_compat=0 / constrained_intra=0 / bframes=8 / b_pyramid=2 / b_adapt=2 / b_bias=0 / direct=3 / weightb=1 / open_gop=0 / weightp=2 / keyint=250 / keyint_min=25 / scenecut=40 / intra_refresh=0 / rc_lookahead=40 / rc=2pass / mbtree=0 / bitrate=2400 / ratetol=1.0 / qcomp=0.65 / qpmin=0 / qpmax=69 / qpstep=4 / cplxblur=20.0 / qblur=0.5 / vbv_maxrate=50000 / vbv_bufsize=62500 / nal_hrd=none / filler=0 / ip_ratio=1.40 / pb_ratio=1.30 / aq=1:1.00
Язык : English
Default : Да
Forced : Нет
Цветовой диапазон : Limited
Основные цвета : BT.601 PAL
Характеристики трансфера : BT.470 System B, BT.470 System G
Коэффициенты матрицы : BT.601
Аудио
Идентификатор : 2
Формат : AC-3
Формат/Информация : Audio Coding 3
Расширение режима : CM (complete main)
Параметр Endianness формата : Big
Идентификатор кодека : A_AC3
Продолжительность : 1 ч. 13 м.
Вид битрейта : Постоянный
Битрейт : 192 Кбит/сек
Каналы : 2 канала
Расположение каналов : Front: L R
Частота : 48,0 КГц
Битовая глубина : 16 бит
Метод сжатия : С потерями
Размер потока : 101 Мбайт (7%)
Язык : Russian
Default : Да
Forced : Нет
Не жилим спасибо. Не забываем голосовать за трекер!!!


Показать сообщения:    

Текущее время: 22-Май 22:32

Часовой пояс: UTC + 3


Вы не можете начинать темы
Вы не можете отвечать на сообщения
Вы не можете редактировать свои сообщения
Вы не можете удалять свои сообщения
Вы не можете голосовать в опросах
Вы не можете прикреплять файлы к сообщениям
Вы не можете скачивать файлы

!ВНИМАНИЕ!
Сайт не предоставляет электронные версии произведений, а занимается лишь коллекционированием и каталогизацией ссылок, присылаемых и публикуемых на форуме нашими читателями. Если вы являетесь правообладателем какого-либо представленного материала и не желаете, чтобы ссылка на него находилась в нашем каталоге, свяжитесь с нами, и мы незамедлительно удалим ее. Файлы для обмена на трекере предоставлены пользователями сайта, и администрация не несет ответственности за их содержание. Просьба не заливать файлы, защищенные авторскими правами, а также файлы нелегального содержания!