۩ ‼ Вы находитесь на Бесплатном торрент-трекере TORRNADA.com ۩ Зарегистрируйтесь для получения полного доступа ко всем функциям сайта ! ۩ После регистрации подпишитесь на нашу рассылку в своём профиле ۩
Auto Web Pinger

 

[Цитировать]

Форсаж 7 / Furious Seven (2015) BDRip [H.264/720p] [Extended Cut]«Месть не знает границ»- Производство: США / Universal Pictures, Original Film, Fast 7 Productions
Жанр: боевик, триллер, криминал
Режиссер: Джеймс Ван
Продюсер: Вин Дизель, Майкл Фоттрел, Нил Х. Мориц
Актеры: Вин Дизель, Пол Уокер, Дуэйн Джонсон, Джейсон Стэйтем, Мишель Родригес, Джордана Брюстер, Тайриз Гибсон, Курт Рассел, Джимон Хонсу, Лудакрис, Эльза Патаки, Лукас Блэк
Описание:
Они покорили Токио и Рио, Лос-Анджелес и Лондон. Но мир больше не играет по их правилам. Зной арабских пустынь, неприлично высокие небоскребы, миллионы долларов на колесах и очень, очень знаменитый злодей. Скорость не знает границ.

Рейтинг MPAA: - детям до 13 лет просмотр не желателен
Дата мировой премьеры: 16 марта 2015
Дата российской премьеры: 9 апреля 2015, «UPI» 3D
Продолжительность: 02:19:55
Качество: BDRip [H.264/720p]
Примечание: Расширенная версия длинее на 2 минуты (гонки и драки), 11 фраз без перевода переведено субтитрами
Перевод: Профессиональный (полное дублирование) (iTunes Russia)
Субтитры: Вшитые отключаемые
Язык субтитров: Русский (Форсированные), Английский
Видео: MPEG-4 AVC/H.264, 5202 Кбит/с, 1280x534
Аудио: Русский AC3, 6 ch, 384 Кбит/с
Аудио: Английский DTS, 6 ch, 1510 Кбит/с
Аудио: Английский AC3, 2 ch, 192 Кбит/с - Комментарии

MediaInfo

Общее
Уникальный идентификатор                 : 254702522605257256626536249125476000992 (0xBF9DEBE8B61A13688CA50E5C66A464E0)
Полное имя                               : C:\Furious.7.2015.720p.BluRay.x264.DTS-WiKi.mkv
Формат                                   : Matroska
Версия формата                           : Version 2
Размер файла                             : 7,13 Гбайт
Продолжительность                        : 2 ч. 19 м.
Общий поток                              : 7293 Кбит/сек
Название фильма                          : Jubowo @ WiKi
Дата кодирования                         : UTC 2015-07-22 14:04:49
Программа кодирования                    : mkvmerge v7.9.0 ('Birds') 64bit
Библиотека кодирования                   : libebml v1.3.1 + libmatroska v1.4.2
DURATION                                 : 02:19:54.859000000
NUMBER_OF_FRAMES                         : 787018
NUMBER_OF_BYTES                          : 1583480344
_STATISTICS_WRITING_APP                  : mkvmerge v8.2.0 ('World of Adventure') 64bit
_STATISTICS_WRITING_DATE_UTC             : 2015-07-22 12:46:46
_STATISTICS_TAGS                         : BPS DURATION NUMBER_OF_FRAMES NUMBER_OF_BYTES
Видео
Идентификатор                            : 1
Формат                                   : AVC
Формат/Информация                        : Advanced Video Codec
Профиль формата                          : High@L4.1
Параметр CABAC формата                   : Да
Параметр ReFrames формата                : 12 кадров
Идентификатор кодека                     : V_MPEG4/ISO/AVC
Продолжительность                        : 2 ч. 19 м.
Битрейт                                  : 5208 Кбит/сек
Ширина                                   : 1280 пикселей
Высота                                   : 534 пикселя
Соотношение сторон                       : 2,40:1
Режим частоты кадров                     : Постоянный
Частота кадров                           : 23,976 кадра/сек
Цветовое пространство                    : YUV
Субдискретизация насыщенности            : 4:2:0
Битовая глубина                          : 8 бит
Тип развёртки                            : Прогрессивная
Бит/(Пиксели*Кадры)                      : 0.318
Размер потока                            : 4,95 Гбайт (69%)
Библиотека кодирования                   : x264 core 129 r2245+704+36 8e61944 tMod+MixAQ [8-bit@4:2:0 X86_64]
Настройки программы                      : cabac=1 / ref=12 / deblock=1:-3:-3 / analyse=0x3:0x133 / me=umh / subme=11 / psy=1 / fade_compensate=0.00 / psy_rd=1.05:0.10 / mixed_ref=1 / me_range=32 / chroma_me=1 / trellis=2 / 8x8dct=1 / cqm=0 / deadzone=21,11 / fast_pskip=0 / chroma_qp_offset=-3 / threads=18 / lookahead_threads=3 / sliced_threads=0 / nr=0 / decimate=0 / interlaced=0 / bluray_compat=0 / constrained_intra=0 / fgo=0 / bframes=10 / b_pyramid=2 / b_adapt=2 / b_bias=0 / direct=3 / weightb=1 / open_gop=0 / weightp=2 / keyint=250 / keyint_min=23 / scenecut=40 / intra_refresh=0 / rc_lookahead=80 / rc=2pass / mbtree=1 / bitrate=5208 / ratetol=1.0 / qcomp=0.70 / qpmin=0 / qpmax=69 / qpstep=4 / cplxblur=20.0 / qblur=0.5 / ip_ratio=1.40 / aq=1 / aq-strength=0.85 / aq-sensitivity=10.00 / aq-ifactor=1.00 / aq-pfactor=1.00 / aq-bfactor=1.00 / aq2=0
Язык                                     : English
Default                                  : Да
Forced                                   : Нет
DURATION                                 : 02:19:54.845000000
NUMBER_OF_FRAMES                         : 201275
NUMBER_OF_BYTES                          : 5462280720
_STATISTICS_WRITING_APP                  : mkvmerge v8.2.0 ('World of Adventure') 64bit
_STATISTICS_WRITING_DATE_UTC             : 2015-07-22 12:46:46
_STATISTICS_TAGS                         : BPS DURATION NUMBER_OF_FRAMES NUMBER_OF_BYTES
Аудио #1
Идентификатор                            : 2
Формат                                   : AC-3
Формат/Информация                        : Audio Coding 3
Расширение режима                        : CM (complete main)
Параметр Endianness формата              : Big
Идентификатор кодека                     : A_AC3
Продолжительность                        : 2 ч. 19 м.
Вид битрейта                             : Постоянный
Битрейт                                  : 384 Кбит/сек
Каналы                                   : 6 каналов
Расположение каналов                     : Front: L C R, Side: L R, LFE
Частота                                  : 48,0 КГц
Метод сжатия                             : С потерями
Размер потока                            : 384 Мбайт (5%)
Язык                                     : Russian
Default                                  : Да
Forced                                   : Нет
Аудио #2
Идентификатор                            : 3
Формат                                   : DTS
Формат/Информация                        : Digital Theater Systems
Режим                                    : 16
Параметр Endianness формата              : Big
Идентификатор кодека                     : A_DTS
Продолжительность                        : 2 ч. 19 м.
Вид битрейта                             : Постоянный
Битрейт                                  : 1509 Кбит/сек
Каналы                                   : 6 каналов
Расположение каналов                     : Front: L C R, Side: L R, LFE
Частота                                  : 48,0 КГц
Битовая глубина                          : 24 бит
Метод сжатия                             : С потерями
Размер потока                            : 1,47 Гбайт (21%)
Язык                                     : English
Default                                  : Нет
Forced                                   : Нет
Аудио #3
Идентификатор                            : 4
Формат                                   : AC-3
Формат/Информация                        : Audio Coding 3
Расширение режима                        : CM (complete main)
Параметр Endianness формата              : Big
Идентификатор кодека                     : A_AC3
Продолжительность                        : 2 ч. 19 м.
Вид битрейта                             : Постоянный
Битрейт                                  : 192 Кбит/сек
Каналы                                   : 2 канала
Расположение каналов                     : Front: L R
Частота                                  : 48,0 КГц
Метод сжатия                             : С потерями
Размер потока                            : 192 Мбайт (3%)
Язык                                     : English
Default                                  : Нет
Forced                                   : Нет
Текст #1
Идентификатор                            : 5
Формат                                   : UTF-8
Идентификатор кодека                     : S_TEXT/UTF8
Идентификатор кодека/Информация          : UTF-8 Plain Text
Язык                                     : Russian
Default                                  : Да
Forced                                   : Нет
Текст #2
Идентификатор                            : 6
Формат                                   : UTF-8
Идентификатор кодека                     : S_TEXT/UTF8
Идентификатор кодека/Информация          : UTF-8 Plain Text
Язык                                     : English
Default                                  : Нет
Forced                                   : Нет
Меню
00:00:00.000                             : en:00:00:00.000
00:04:39.946                             : en:00:04:39.946
00:11:29.480                             : en:00:11:29.480
00:16:39.289                             : en:00:16:39.289
00:25:54.052                             : en:00:25:54.052
00:33:43.896                             : en:00:33:43.896
00:41:44.585                             : en:00:41:44.585
00:46:41.006                             : en:00:46:41.006
00:52:10.710                             : en:00:52:10.710
01:02:31.414                             : en:01:02:31.414
01:06:16.680                             : en:01:06:16.680
01:14:16.868                             : en:01:14:16.868
01:22:34.032                             : en:01:22:34.032
01:33:21.137                             : en:01:33:21.137
01:38:27.484                             : en:01:38:27.484
01:45:40.083                             : en:01:45:40.083
01:53:54.452                             : en:01:53:54.452
01:58:31.062                             : en:01:58:31.062
02:06:19.863                             : en:02:06:19.863
02:11:31.174                             : en:02:11:31.174
Скриншоты:
Не жилим спасибо. Не забываем голосовать за трекер!!!


Показать сообщения:    

Текущее время: 21-Май 08:33

Часовой пояс: UTC + 3


Вы не можете начинать темы
Вы не можете отвечать на сообщения
Вы не можете редактировать свои сообщения
Вы не можете удалять свои сообщения
Вы не можете голосовать в опросах
Вы не можете прикреплять файлы к сообщениям
Вы не можете скачивать файлы

!ВНИМАНИЕ!
Сайт не предоставляет электронные версии произведений, а занимается лишь коллекционированием и каталогизацией ссылок, присылаемых и публикуемых на форуме нашими читателями. Если вы являетесь правообладателем какого-либо представленного материала и не желаете, чтобы ссылка на него находилась в нашем каталоге, свяжитесь с нами, и мы незамедлительно удалим ее. Файлы для обмена на трекере предоставлены пользователями сайта, и администрация не несет ответственности за их содержание. Просьба не заливать файлы, защищенные авторскими правами, а также файлы нелегального содержания!