۩ ‼ Вы находитесь на Бесплатном торрент-трекере TORRNADA.com ۩ Зарегистрируйтесь для получения полного доступа ко всем функциям сайта ! ۩ После регистрации подпишитесь на нашу рассылку в своём профиле ۩
Auto Web Pinger

 

[Цитировать]

Название: Страница 8
Оригинальное название: Page Eight
Год выпуска: 2011
Страна: Великобритания
Жанр: детектив, драма
Продолжительность: 01:43:20
Перевод: любительский одноголосый
Режиссёр: Дэвид Хэа
В ролях: Билл Найи, Рэйчел Вайз, Том Хьюз, Майкл Гэмбон, Джуди Дэвис, Ракхи Тхакрар, Саския Ривз, Юэн Бремнер, Фелисити Джонс, Ричард Линтерн, Холли Аирд, Эндрю Кливер, Кейт Бёрдетт, Рэйф Файнс, Элис Крайдж, Рори Моррисон, Эшлин Лофтус, Брюс Майерс, Сурендра Кочар, Шарлотта Грин, Марта Келлер, Биджан Данешманд, Джей Бенедикт, Джеймс МакАрдл, Крисс Досанж, Хайвел Морган, Пиппа Андре, Дикси Арнольд, Грег Беннетт, Кен Бирк, Билли Холлидей, Саймон Стиггэлл, Роберт Торетто, Лестер Янг
Описание: Первый фильм трилогии (Теркс и Кайкос, Солёное поле боя) о Джонни Уоррикере - офицере разведки MI5. Неожиданная встреча на лестничной клетке с приятной молодой Ненси Пирпен кажется агенту секретной службы не случайной. Однако его больше беспокоит другая более серьёзная случайность: лучший друг и начальник Бенедикт Барон внезапно умирает, оставив тоненькую, но опасную папку с секретной информацией. Общаясь с завистниками, бывшими жёнами и дочерью, агент Уоррикер собирает информацию об угрожающем правительству документе и всё больше увлекается очаровательной соседкой... Триллер с немного детективным сюжетом периодически напоминает семейную драму, но только происходящую на высоком уровне и расцвеченную английским юмором.

Качество: BDRip AVC Сравнение с исходником
Формат: MKV
Видео: MPEG-4 AVC, 1526 Кбит/с, 1024x436, 23,976 кадра/с
Аудио 1: русский, AC3, 448 kbps, 2 ch, 48 kHz [любительский одноголосый, Семён Ващенко]
Аудио 2: русский, AC3, 256 kbps, 2 ch, 48 kHz [любительский одноголосый, Гундос]
Аудио 3: английский, AC3, 192 kbps, 2 ch, 48 kHz [оригинал]
Субтитры 1: русские (SemiIsland)
Субтитры 2: английские

Награды

Золотой глобус, 2012 год
Номинации (1):
Лучший актёр мини-сериала или фильма на ТВ (Билл Найи)
Эмми, 2012 год
Номинации (1):
Лучшая женская роль второго плана в мини-сериале или телефильме (Джуди Дэвис)

Инфо-файл

Общее
Уникальный идентификатор : 208090047750328978421262116452712418366 (0x9C8CAF76F911E720B95ABC50E4698C3E)
Полное имя : D:VideoСтраница 8.2011.BDRip.AVC.mkv
Формат : Matroska
Версия формата : Version 4 / Version 2
Размер файла : 1,78 Гбайт
Продолжительность : 1 ч. 43 м.
Общий поток : 2472 Кбит/сек
Название фильма : BDRip -- STarankov
Дата кодирования : UTC 2015-07-22 10:02:31
Программа кодирования : mkvmerge v8.2.0 ('World of Adventure') 64bit
Библиотека кодирования : libebml v1.3.1 + libmatroska v1.4.2
DURATION : 01:39:16.665000000
NUMBER_OF_FRAMES : 1236
NUMBER_OF_BYTES : 53874
_STATISTICS_WRITING_APP : mkvmerge v8.2.0 ('World of Adventure') 64bit
_STATISTICS_WRITING_DATE_UTC : 2015-07-22 10:02:31
_STATISTICS_TAGS : BPS DURATION NUMBER_OF_FRAMES NUMBER_OF_BYTES
Видео
Идентификатор : 1
Формат : AVC
Формат/Информация : Advanced Video Codec
Профиль формата : High@L4.1
Параметр CABAC формата : Да
Параметр ReFrames формата : 9 кадров
Идентификатор кодека : V_MPEG4/ISO/AVC
Продолжительность : 1 ч. 43 м.
Битрейт : 1526 Кбит/сек
Ширина : 1024 пикселя
Высота : 436 пикселей
Соотношение сторон : 2,35:1
Режим частоты кадров : Постоянный
Частота кадров : 23,976 кадра/сек
Цветовое пространство : YUV
Субдискретизация насыщенности : 4:2:0
Битовая глубина : 8 бит
Тип развёртки : Прогрессивная
Бит/(Пиксели*Кадры) : 0.143
Размер потока : 1,10 Гбайт (62%)
Библиотека кодирования : x264 core 146 r2538 121396c
Настройки программы : cabac=1 / ref=9 / deblock=1:-1:-1 / analyse=0x3:0x113 / me=umh / subme=10 / psy=1 / psy_rd=1.00:0.15 / mixed_ref=1 / me_range=32 / chroma_me=1 / trellis=2 / 8x8dct=1 / cqm=0 / deadzone=21,11 / fast_pskip=1 / chroma_qp_offset=-3 / threads=6 / lookahead_threads=1 / sliced_threads=0 / nr=0 / decimate=1 / interlaced=0 / bluray_compat=0 / constrained_intra=0 / bframes=10 / b_pyramid=2 / b_adapt=2 / b_bias=0 / direct=1 / weightb=1 / open_gop=0 / weightp=2 / keyint=230 / keyint_min=23 / scenecut=40 / intra_refresh=0 / rc_lookahead=40 / rc=crf / mbtree=0 / crf=17.0 / qcomp=0.60 / qpmin=0 / qpmax=69 / qpstep=4 / vbv_maxrate=40000 / vbv_bufsize=50000 / crf_max=0.0 / nal_hrd=none / filler=0 / ip_ratio=1.40 / pb_ratio=1.30 / aq=1:1.00
Язык : English
Default : Да
Forced : Нет
DURATION : 01:43:20.153000000
NUMBER_OF_FRAMES : 148655
NUMBER_OF_BYTES : 1219133024
_STATISTICS_WRITING_APP : mkvmerge v8.2.0 ('World of Adventure') 64bit
_STATISTICS_WRITING_DATE_UTC : 2015-07-22 10:02:31
_STATISTICS_TAGS : BPS DURATION NUMBER_OF_FRAMES NUMBER_OF_BYTES
Аудио #1
Идентификатор : 2
Формат : AC-3
Формат/Информация : Audio Coding 3
Расширение режима : CM (complete main)
Параметр Endianness формата : Big
Идентификатор кодека : A_AC3
Продолжительность : 1 ч. 43 м.
Вид битрейта : Постоянный
Битрейт : 448 Кбит/сек
Каналы : 2 канала
Расположение каналов : Front: L R
Частота : 48,0 КГц
Метод сжатия : С потерями
Размер потока : 331 Мбайт (18%)
Заголовок : VO (Семён Ващенко)
Язык : Russian
Default : Да
Forced : Нет
Аудио #2
Идентификатор : 3
Формат : AC-3
Формат/Информация : Audio Coding 3
Расширение режима : CM (complete main)
Параметр Endianness формата : Big
Идентификатор кодека : A_AC3
Продолжительность : 1 ч. 43 м.
Вид битрейта : Постоянный
Битрейт : 256 Кбит/сек
Каналы : 2 канала
Расположение каналов : Front: L R
Частота : 48,0 КГц
Метод сжатия : С потерями
Размер потока : 189 Мбайт (10%)
Заголовок : VO (Гундос)
Язык : Russian
Default : Нет
Forced : Нет
Аудио #3
Идентификатор : 4
Формат : AC-3
Формат/Информация : Audio Coding 3
Расширение режима : CM (complete main)
Параметр Endianness формата : Big
Идентификатор кодека : A_AC3
Продолжительность : 1 ч. 43 м.
Вид битрейта : Постоянный
Битрейт : 192 Кбит/сек
Каналы : 2 канала
Расположение каналов : Front: L R
Частота : 48,0 КГц
Метод сжатия : С потерями
Размер потока : 142 Мбайт (8%)
Заголовок : Original
Язык : English
Default : Нет
Forced : Нет
Текст #1
Идентификатор : 5
Формат : UTF-8
Идентификатор кодека : S_TEXT/UTF8
Идентификатор кодека/Информация : UTF-8 Plain Text
Заголовок : русский
Язык : Russian
Default : Нет
Forced : Нет
Текст #2
Идентификатор : 6
Формат : UTF-8
Идентификатор кодека : S_TEXT/UTF8
Идентификатор кодека/Информация : UTF-8 Plain Text
Заголовок : английский
Default : Нет
Forced : Нет

Скриншоты



Показать сообщения:    

Текущее время: 22-Май 13:43

Часовой пояс: UTC + 3


Вы не можете начинать темы
Вы не можете отвечать на сообщения
Вы не можете редактировать свои сообщения
Вы не можете удалять свои сообщения
Вы не можете голосовать в опросах
Вы не можете прикреплять файлы к сообщениям
Вы не можете скачивать файлы

!ВНИМАНИЕ!
Сайт не предоставляет электронные версии произведений, а занимается лишь коллекционированием и каталогизацией ссылок, присылаемых и публикуемых на форуме нашими читателями. Если вы являетесь правообладателем какого-либо представленного материала и не желаете, чтобы ссылка на него находилась в нашем каталоге, свяжитесь с нами, и мы незамедлительно удалим ее. Файлы для обмена на трекере предоставлены пользователями сайта, и администрация не несет ответственности за их содержание. Просьба не заливать файлы, защищенные авторскими правами, а также файлы нелегального содержания!