۩ ‼ Вы находитесь на Бесплатном торрент-трекере TORRNADA.com ۩ Зарегистрируйтесь для получения полного доступа ко всем функциям сайта ! ۩ После регистрации подпишитесь на нашу рассылку в своём профиле ۩
Auto Web Pinger

 

[Цитировать]

Фильм о фильме: Офицеры. Судьбы за кадром (2007) TVRip - Телекомпания: Первый канал
Производство: Россия, Телекомпания «Останкино»
Жанр: Документальный
Режиссер: Виталий Павлов
Участники: Олег Газманов, Борис Васильев, Владимир Златоустовский, Василий Лановой, Алина Покровская, Александр Воеводин, Геннадий Полока
Описание:Изначально фильм «Офицеры» должен был быть цветным и двухсерийным. Авторы сценария, Борис Васильев и Кирилл Рапопорт, задумывали рассказать совершенно разные истории. Один хотел воспеть мужскую, суровую профессию, другой собирался поведать о трудном счастье женщины, жены и матери. В результате получился фильм, который спустя уже почти сорок лет после его выхода в прокат, несмотря на все противоречия авторов, любят зрители разных поколений, мужчины и женщины, военные и гражданские, пожилые и совсем юные. Такое случается очень редко и, наверное, одна из составляющих этого феноменального успеха состоит в том, что авторы писали о том, что было частью их жизни. В документальном фильме «Офицеры. Судьбы за Кадром» авторы попытались проанализировать, что же стало причиной такой популярности. Актеры, сыгравшие главных героев — Василий Лановой, Алина Покровская и Александр Воеводин — поделятся воспоминаниями о том, как проходили съемки, расскажут курьезные случаи, а так же приоткроют тайны, как этот фильм отразился на их личной судьбе.Продолжительность: 00:43:01
Качество видео: TVRip
Видео: Xvid, 704x528, ~1487 Кбит/с
Аудио: MP3, 2 ch, 128 Кбит/сек, CBR

Mediainfo:

Общее
Полное имя                               : D:\видео\фильмы\Oficery.Sudby.za.Kadrom.2007.DivX.TVRip.avi
Формат                                   : AVI
Формат/Информация                        : Audio Video Interleave
Размер файла                             : 500 Мбайт
Продолжительность                        : 43 м.
Общий поток                              : 1625 Кбит/сек
Программа кодирования                    : VirtualDubMod 1.5.10.3 (build 2550/release)
Библиотека кодирования                   : VirtualDubMod build 2550/release
Видео
Идентификатор                            : 0
Формат                                   : MPEG-4 Visual
Параметр BVOP формата                    : 1
Параметр QPel формата                    : Нет
Параметр GMC формата                     : Без точки перехода
Параметр матрицы формата                 : Default (MPEG)
Режим смешивания                         : Сжатый битовый поток
Идентификатор кодека                     : DX50
Идентификатор кодека/Подсказка           : DivX 5
Продолжительность                        : 43 м.
Битрейт                                  : 1488 Кбит/сек
Ширина                                   : 704 пикселя
Высота                                   : 528 пикселей
Соотношение сторон                       : 4:3
Частота кадров                           : 25,000 кадров/сек
Цветовое пространство                    : YUV
Субдискретизация насыщенности            : 4:2:0
Битовая глубина                          : 8 бит
Тип развёртки                            : Прогрессивная
Метод сжатия                             : С потерями
Бит/(Пиксели*Кадры)                      : 0.160
Размер потока                            : 458 Мбайт (92%)
Библиотека кодирования                   : DivX 6.8.5 (UTC 2009-08-20)
Аудио
Идентификатор                            : 1
Формат                                   : MPEG Audio
Версия формата                           : Version 1
Профиль формата                          : Layer 3
Режим                                    : Joint stereo
Идентификатор кодека                     : 55
Идентификатор кодека/Подсказка           : MP3
Продолжительность                        : 43 м.
Вид битрейта                             : Постоянный
Битрейт                                  : 128 Кбит/сек
Каналы                                   : 2 канала
Частота                                  : 48,0 КГц
Метод сжатия                             : С потерями
Размер потока                            : 39,4 Мбайт (8%)
Выравнивание                             : Соединение по промежуткам
Продолжительность промежутка             : 40  мс. (1,00 видеокадр)
Время предзагрузки промежутка            : 504  мс.
Скриншоты:
Не жилим спасибо. Не забываем голосовать за трекер!!!


Показать сообщения:    

Текущее время: 24-Май 14:57

Часовой пояс: UTC + 3


Вы не можете начинать темы
Вы не можете отвечать на сообщения
Вы не можете редактировать свои сообщения
Вы не можете удалять свои сообщения
Вы не можете голосовать в опросах
Вы не можете прикреплять файлы к сообщениям
Вы не можете скачивать файлы

!ВНИМАНИЕ!
Сайт не предоставляет электронные версии произведений, а занимается лишь коллекционированием и каталогизацией ссылок, присылаемых и публикуемых на форуме нашими читателями. Если вы являетесь правообладателем какого-либо представленного материала и не желаете, чтобы ссылка на него находилась в нашем каталоге, свяжитесь с нами, и мы незамедлительно удалим ее. Файлы для обмена на трекере предоставлены пользователями сайта, и администрация не несет ответственности за их содержание. Просьба не заливать файлы, защищенные авторскими правами, а также файлы нелегального содержания!