۩ ‼ Вы находитесь на Бесплатном торрент-трекере TORRNADA.com ۩ Зарегистрируйтесь для получения полного доступа ко всем функциям сайта ! ۩ После регистрации подпишитесь на нашу рассылку в своём профиле ۩
Auto Web Pinger

 

[Цитировать]

Ганмен / The Gunman (2015) BDRip- Производство: StudioCanal, Silver Pictures, TF1, Canal+ / США, Испания, Великобритания, Франция
Жанр: Боевик, Триллер, Драма, Криминал, Детектив
Режиссер: Пьер Морель
Актеры: Шон Пенн, Хавьер Бардем, Рэй Уинстон, Жазмин Тринка, Идрис Эльба, Марк Райлэнс, Петер Францен, Билли Биллинхэм, Дэниэл Адегбойега, Адэ Ойефесо, Алехандро Таванте
Описание:
Джим Террье - ганмен, международный наемник высочайшего класса. Но когда в Компании начинают подчищать хвосты, Джим сам становится мишенью. Чтобы выжить, Джим угрожает обнародовать имеющийся у него компромат и обращается к бывшему напарнику Феликсу. Однако у Феликса есть свои резоны желать, чтобы Джим Террье исчез из его жизни. Это Энни - женщина, которую они оба любят. За Джимом начинается смертельная охота по всей Европе, и у него не остается другого выбора, кроме как дать бой - один против всех.

Дата мировой премьеры: 16 февраля 2015
Дата премьеры в России: 18 июня 2015, «Вольга»
Продолжительность: 01:55:40
Качество видео: BDRip [H.264/720p-LQ]
Перевод: Дубляж / Одноголосный закадровый
Вид субтитров: Вшитые отключаемые
Язык субтитров: Английский
Видео: AVC/H.264, 1280x534, ~4038 kbps
Аудио 1: AC3 5.1 384 kbps | Русский (дубляж iTunes)
Аудио 2: AC3 5.1 640 kbps | Русский (Д. Есарев | цензура)
Аудио 3: AC3 5.1 640 kbps | Русский (Д. Есарев | без цензуры)
Аудио 4: AC3 5.1 640 kbps | Русский (М. Яроцкий | без цензуры)
Аудио 5: AC3 5.1 640 kbps | Английский (Оригинал)
Релиз от: y607ce

MediaInfo:

Complete name               : C:\Ганмен-The.Gunman.(2015).BDRip.x264.720p-LQ.y607ce.torrnada.mkv
Format                      : Matroska
Format version              : Version 4 / Version 2
File size                   : 5.76 GiB
Duration                    : 1h 55mn
Overall bit rate            : 7 123 Kbps
Movie name                  : Ганмен / The Gunman (2015) BDRip | torrnada | y607ce
Encoded date                : UTC 2015-07-21 22:53:25
Writing application         : mkvmerge v8.2.0 ('World of Adventure') 64bit
Writing library             : libebml v1.3.1 + libmatroska v1.4.2
Attachements                : cover.jpg
DURATION                    : 01:55:40.032000000
NUMBER_OF_FRAMES            : 216876
NUMBER_OF_BYTES             : 555202560
_STATISTICS_WRITING_APP     : mkvmerge v8.2.0 ('World of Adventure') 64bit
_STATISTICS_WRITING_DATE_UT : 2015-07-21 22:53:25
_STATISTICS_TAGS            : BPS DURATION NUMBER_OF_FRAMES NUMBER_OF_BYTES
Video
ID                          : 1
Format                      : AVC
Format/Info                 : Advanced Video Codec
Format profile              : High@L4.1
Format settings, CABAC      : Yes
Format settings, ReFrames   : 12 frames
Codec ID                    : V_MPEG4/ISO/AVC
Duration                    : 1h 55mn
Bit rate                    : 4 038 Kbps
Width                       : 1 280 pixels
Height                      : 534 pixels
Display aspect ratio        : 2.40:1
Frame rate mode             : Constant
Frame rate                  : 23.976 fps
Color space                 : YUV
Chroma subsampling          : 4:2:0
Bit depth                   : 8 bits
Scan type                   : Progressive
Bits/(Pixel*Frame)          : 0.246
Stream size                 : 3.26 GiB (57%)
Title                       : Ганмен / The Gunman (2015) BDRip | x264 | 720p-LQ
Writing library             : x264 core 144 r2525 40bb568
Encoding settings           : cabac=1 / ref=12 / deblock=1:-3:-3 / analyse=0x3:0x113 / me=umh / subme=11 / psy=1 / psy_rd=1.00:0.15 / mixed_ref=1 / me_range=48 / chroma_me=1 / trellis=2 / 8x8dct=1 / cqm=0 / deadzone=21,11 / fast_pskip=1 / chroma_qp_offset=-3 / threads=12 / lookahead_threads=3 / sliced_threads=0 / nr=0 / decimate=1 / interlaced=0 / bluray_compat=0 / constrained_intra=0 / bframes=16 / b_pyramid=2 / b_adapt=2 / b_bias=0 / direct=3 / weightb=1 / open_gop=0 / weightp=2 / keyint=240 / keyint_min=23 / scenecut=40 / intra_refresh=0 / rc_lookahead=60 / rc=crf / mbtree=0 / crf=17.5 / qcomp=0.60 / qpmin=0 / qpmax=69 / qpstep=4 / vbv_maxrate=14000 / vbv_bufsize=14000 / crf_max=0.0 / nal_hrd=none / filler=0 / ip_ratio=1.40 / pb_ratio=1.30 / aq=3:1.00
Language                    : English
Default                     : Yes
Forced                      : Yes
DURATION                    : 01:55:39.975000000
NUMBER_OF_FRAMES            : 166393
NUMBER_OF_BYTES             : 3622647433
_STATISTICS_WRITING_APP     : mkvmerge v8.2.0 ('World of Adventure') 64bit
_STATISTICS_WRITING_DATE_UT : 2015-07-21 22:53:25
_STATISTICS_TAGS            : BPS DURATION NUMBER_OF_FRAMES NUMBER_OF_BYTES
Audio #1
ID                          : 2
Format                      : AC-3
Format/Info                 : Audio Coding 3
Mode extension              : CM (complete main)
Format settings, Endianness : Big
Codec ID                    : A_AC3
Duration                    : 1h 55mn
Bit rate mode               : Constant
Bit rate                    : 384 Kbps
Channel(s)                  : 6 channels
Channel positions           : Front: L C R, Side: L R, LFE
Sampling rate               : 48.0 KHz
Compression mode            : Lossy
Stream size                 : 318 MiB (5%)
Title                       : iTunes | DD 5.1 @ 384 kbps
Language                    : Russian
Default                     : Yes
Forced                      : Yes
Audio #2
ID                          : 3
Format                      : AC-3
Format/Info                 : Audio Coding 3
Mode extension              : CM (complete main)
Format settings, Endianness : Big
Codec ID                    : A_AC3
Duration                    : 1h 55mn
Bit rate mode               : Constant
Bit rate                    : 640 Kbps
Channel(s)                  : 6 channels
Channel positions           : Front: L C R, Side: L R, LFE
Sampling rate               : 48.0 KHz
Compression mode            : Lossy
Stream size                 : 529 MiB (9%)
Title                       : Есарев (цензура) | DD 5.1 @ 640 kbps
Language                    : Russian
Default                     : No
Forced                      : No
Audio #3
ID                          : 4
Format                      : AC-3
Format/Info                 : Audio Coding 3
Mode extension              : CM (complete main)
Format settings, Endianness : Big
Codec ID                    : A_AC3
Duration                    : 1h 55mn
Bit rate mode               : Constant
Bit rate                    : 640 Kbps
Channel(s)                  : 6 channels
Channel positions           : Front: L C R, Side: L R, LFE
Sampling rate               : 48.0 KHz
Compression mode            : Lossy
Stream size                 : 529 MiB (9%)
Title                       : Есарев (без цензуры) | DD 5.1 @ 640 kbps
Language                    : Russian
Default                     : No
Forced                      : No
Audio #4
ID                          : 5
Format                      : AC-3
Format/Info                 : Audio Coding 3
Mode extension              : CM (complete main)
Format settings, Endianness : Big
Codec ID                    : A_AC3
Duration                    : 1h 55mn
Bit rate mode               : Constant
Bit rate                    : 640 Kbps
Channel(s)                  : 6 channels
Channel positions           : Front: L C R, Side: L R, LFE
Sampling rate               : 48.0 KHz
Compression mode            : Lossy
Stream size                 : 529 MiB (9%)
Title                       : Яроцкий (без цензуры) | DD 5.1 @ 640 kbps
Language                    : Russian
Default                     : No
Forced                      : No
Audio #5
ID                          : 6
Format                      : AC-3
Format/Info                 : Audio Coding 3
Mode extension              : CM (complete main)
Format settings, Endianness : Big
Codec ID                    : A_AC3
Duration                    : 1h 55mn
Bit rate mode               : Constant
Bit rate                    : 640 Kbps
Channel(s)                  : 6 channels
Channel positions           : Front: L C R, Side: L R, LFE
Sampling rate               : 48.0 KHz
Compression mode            : Lossy
Stream size                 : 529 MiB (9%)
Title                       : Original | DD 5.1 @ 640 kbps
Language                    : English
Default                     : No
Forced                      : No
Text #1
ID                          : 7
Format                      : UTF-8
Codec ID                    : S_TEXT/UTF8
Codec ID/Info               : UTF-8 Plain Text
Title                       : Full
Language                    : English
Default                     : No
Forced                      : No
Text #2
ID                          : 8
Format                      : UTF-8
Codec ID                    : S_TEXT/UTF8
Codec ID/Info               : UTF-8 Plain Text
Title                       : SDH
Language                    : English
Default                     : No
Forced                      : No
Text #3
ID                          : 9
Format                      : UTF-8
Codec ID                    : S_TEXT/UTF8
Codec ID/Info               : UTF-8 Plain Text
Title                       : SDH-Colored
Language                    : English
Default                     : No
Forced                      : No
Menu
00:00:00.000                : en:00:00:00.000
00:04:48.747                : en:00:04:48.747
00:10:29.963                : en:00:10:29.963
00:14:22.987                : en:00:14:22.987
00:18:00.788                : en:00:18:00.788
00:23:17.396                : en:00:23:17.396
00:27:53.130                : en:00:27:53.130
00:34:14.886                : en:00:34:14.886
00:39:51.139                : en:00:39:51.139
00:45:51.582                : en:00:45:51.582
00:50:19.934                : en:00:50:19.934
00:58:10.404                : en:00:58:10.404
01:04:37.165                : en:01:04:37.165
01:08:27.478                : en:01:08:27.478
01:14:44.230                : en:01:14:44.230
01:21:37.726                : en:01:21:37.726
01:31:18.223                : en:01:31:18.223
01:38:39.330                : en:01:38:39.330
01:45:34.370                : en:01:45:34.370
01:49:15.841                : en:01:49:15.841

Знаете ли Вы, что...

• Экранизация романа Жана-Патрика Маншетта «Позиция для лежачего стрелка».
• Съемки фильма проходили в Барселоне, Испании и Лиссабоне (Португалия).
• Ранее у романа Жана-Патрика Маншетта «Позиция для лежачего стрелка» уже была экранизация — фильм «Шок» (1982).
Скриншоты:
Не жилим спасибо. Не забываем голосовать за трекер!!!

[Цитировать]

Хотя фильм "Ганмен" получил довольно низкие оценки профессиональных кинокритиков, мне он все же понравился. Да, эту картину сложно назвать шедевральной или шикарной, но фильм неплох. Снят хорошо, актеры играют на достойном уровне и интерес к сюжету присутствует. Если смотреть внимательно и полностью погрузится в атмосферу происходящего в картине, начинаешь по-настоящему сопереживать героям фильма.

[Цитировать]

После просмотра этого фильма, у меня какое то двоякое ощущение. С одной стороны, для 2015 года он снят довольно простенько, я бы даже сказал- банально, можно было постараться намного лучше.
Но с другой стороны, сам сюжет достаточно интересен и непредсказуем, поэтому ты не знаешь и даже не догадываешься что произойдет в тот или иной момент. Так что, смотрите и сами сделайте выводы.

[Цитировать]

Еще один до дыр сюжет заезженного боевика. Один против всех, мастер...Такой фильм был бы хорош для 90-х, но не для нынешних реалий наевшегося зрителя. Шон Пенн, конечно, хорош, но даже он не вытягивает нестройное повествование о бойце, к которому не испытываешь вообще никаких эмоций: он просто есть, бегает, стреляет, прикольно, ну и фиг с ним. При том, что фильм из жанра "боевик", заявляю: не цепляют перестрелки, а значит и экшен второсортен. Посмотрите лучше Арни, Сталоне или Ван Дамма.


Показать сообщения:    

Текущее время: 22-Май 14:20

Часовой пояс: UTC + 3


Вы не можете начинать темы
Вы не можете отвечать на сообщения
Вы не можете редактировать свои сообщения
Вы не можете удалять свои сообщения
Вы не можете голосовать в опросах
Вы не можете прикреплять файлы к сообщениям
Вы не можете скачивать файлы

!ВНИМАНИЕ!
Сайт не предоставляет электронные версии произведений, а занимается лишь коллекционированием и каталогизацией ссылок, присылаемых и публикуемых на форуме нашими читателями. Если вы являетесь правообладателем какого-либо представленного материала и не желаете, чтобы ссылка на него находилась в нашем каталоге, свяжитесь с нами, и мы незамедлительно удалим ее. Файлы для обмена на трекере предоставлены пользователями сайта, и администрация не несет ответственности за их содержание. Просьба не заливать файлы, защищенные авторскими правами, а также файлы нелегального содержания!