۩ ‼ Вы находитесь на Бесплатном торрент-трекере TORRNADA.com ۩ Зарегистрируйтесь для получения полного доступа ко всем функциям сайта ! ۩ После регистрации подпишитесь на нашу рассылку в своём профиле ۩
Auto Web Pinger

 

[Цитировать]

Информация о фильме
Название: Разыскиваются в Малибу
Оригинальное название: Malibu's Most Wanted
Год выхода: 2003
Жанр: комедия, криминал
Режиссер: Джон Уайтселл / John Whitesell
В ролях: Джейми Кеннеди, Тэй Диггз, Энтони Андерсон, Реджина Холл, Блэр Андервуд, Дэмиен Уайанс, Райан О`Нил, Бо Дерек, Джефри Тэмбор, Кэл Пенн, Ник Свардсон, Келли Мартин, Грег Гранберг, Терри Крюс
О фильме:
Не стоит ненавидеть его за то, кем он является. Или кем он не является. Все, чем хочет заниматься Брэд — или Би-рэд — разъезжать со своими дружками по Малибу и вести себя, как самый крутой черный рэппер в округе.
Но все вокруг знают, что паренек, лихо читающий рэп, родом из респектабельного квартала Малибу. И отец Брэда, Билл Глакман, кандидат в губернаторы, серьезно боится, что увлечение Би-рэда «черной» культурой может разнести в пух и прах его предвыборную кампанию.

Страна: США
Продолжительность: 01:26:12
Перевод: Профессиональный (двухголосый закадровый), Авторский (одноголосый закадровый) Е. Рудой
Файл
Кодек: XviD
Качество: WEB-DLRip
Видео: 688x288, 23,976 fps, 1643 kbps
Аудио 1: AC3, 6 ch, 384 kbps, 48.0 KHz..............Профессиональный (двухголосый закадровый)
Аудио 2: AC3, 6 ch, 384 kbps, 48.0 KHz..............Авторский (одноголосый закадровый) Е. Рудой

MI

Общее
Полное имя : Malibus.Most.Wanted.2003.WEB-DLRip.avi
Формат : AVI
Формат/Информация : Audio Video Interleave
Размер файла : 1,46 Гбайт
Продолжительность : 1 ч. 26 м.
Общий поток : 2425 Кбит/сек
Программа кодирования : VirtualDubMod 1.5.10.2 (build 2542/release)
Библиотека кодирования : VirtualDubMod build 2542/release
Видео
Идентификатор : 0
Формат : MPEG-4 Visual
Профиль формата : Advanced Simple@L5
Параметр BVOP формата : 1
Параметр QPel формата : Нет
Параметр GMC формата : Без точки перехода
Параметр матрицы формата : Выборочная
Идентификатор кодека : XVID
Идентификатор кодека/Подсказка : XviD
Продолжительность : 1 ч. 26 м.
Битрейт : 1643 Кбит/сек
Ширина : 688 пикс.
Высота : 288 пикс.
Соотношение сторон : 2,35:1
Частота кадров : 23,976 кадр/сек
Цветовое пространство : YUV
Подвыборка цветности : 4:2:0
Битовая глубина : 8 бит
Тип развёртки : Прогрессивная
Метод сжатия : С потерями
Бит/(Пиксели*Кадры) : 0.346
Размер потока : 1013 Мбайт (68%)
Библиотека кодирования : XviD 73
Аудио #1
Идентификатор : 1
Формат : AC-3
Формат/Информация : Audio Coding 3
Расширение режима : CM (complete main)
Идентификатор кодека : 2000
Продолжительность : 1 ч. 26 м.
Вид битрейта : Постоянный
Битрейт : 384 Кбит/сек
Канал(ы) : 6 канала(ов)
Расположение каналов : Front: L C R, Side: L R, LFE
Частота : 48,0 КГц
Битовая глубина : 16 бит
Метод сжатия : С потерями
Размер потока : 237 Мбайт (16%)
Выравнивание : Разделение по промежуткам
Продолжительность промежутка : 42 мс. (1,00 видеокадр)
Время предзагрузки промежутка : 500 ms
Аудио #2
Идентификатор : 2
Формат : AC-3
Формат/Информация : Audio Coding 3
Расширение режима : CM (complete main)
Идентификатор кодека : 2000
Продолжительность : 1 ч. 26 м.
Вид битрейта : Постоянный
Битрейт : 384 Кбит/сек
Канал(ы) : 6 канала(ов)
Расположение каналов : Front: L C R, Side: L R, LFE
Частота : 48,0 КГц
Битовая глубина : 16 бит
Метод сжатия : С потерями
Размер потока : 237 Мбайт (16%)
Выравнивание : Разделение по промежуткам
Продолжительность промежутка : 42 мс. (1,00 видеокадр)
Время предзагрузки промежутка : 500 ms

Скриншоты



Показать сообщения:    

Текущее время: 20-Май 04:16

Часовой пояс: UTC + 3


Вы не можете начинать темы
Вы не можете отвечать на сообщения
Вы не можете редактировать свои сообщения
Вы не можете удалять свои сообщения
Вы не можете голосовать в опросах
Вы не можете прикреплять файлы к сообщениям
Вы не можете скачивать файлы

!ВНИМАНИЕ!
Сайт не предоставляет электронные версии произведений, а занимается лишь коллекционированием и каталогизацией ссылок, присылаемых и публикуемых на форуме нашими читателями. Если вы являетесь правообладателем какого-либо представленного материала и не желаете, чтобы ссылка на него находилась в нашем каталоге, свяжитесь с нами, и мы незамедлительно удалим ее. Файлы для обмена на трекере предоставлены пользователями сайта, и администрация не несет ответственности за их содержание. Просьба не заливать файлы, защищенные авторскими правами, а также файлы нелегального содержания!