۩ ‼ Вы находитесь на Бесплатном торрент-трекере TORRNADA.com ۩ Зарегистрируйтесь для получения полного доступа ко всем функциям сайта ! ۩ После регистрации подпишитесь на нашу рассылку в своём профиле ۩
Auto Web Pinger

 

[Цитировать]

Беовульф (Режиссерская версия) / Beowulf (Director's Cut)
«Гордость - это проклятие»
Русское название: Беовульф
Оригинальное название: Beowulf
Год выпуска: 2007
Жанр: мультфильм, фэнтези, боевик, драма, приключения
Выпущено: США
Режиссер: Роберт Земекис
В ролях: Рэй Уинстон , Энтони Хопкинс , Робин Райт , Джон Малкович , Криспин Гловер , Брендан Глисон , Анджелина Джоли , Костас Мэндилор , Пол Бэйкер , Джон Билезикджян , Род Д. Харбор , Брайс Мартин
Перевод: Дублированный, Профессиональный многоголосый, Авторский (одноголосый)

Сюжет фильма:
Действие фильма разворачивается в Дании VI века, где король Хротгар решает отпраздновать завершение строительства своего медового зала - Хеорота. Но звуки музыки и веселья пробуждают и злят монстра Гренделя, который нападает на праздновавших, убив многих из них. Но когда Хротгар вызывает его на битву, чудовище возвращается к своей матери - демону воды. Король закрывает свой зал и предлагает половину своего золота тому, кто убьёт Гренделя. Беовульф и его группа гётских воинов прибывает на корабле в земли Хротгара, соглашаясь уничтожить зверя. Но им не доверяет советник короля Унферт, с которым у Беовульфа возникает конфликт...
-Качество: BDRip 1080p (Исходник HDDVDRemux)
Формат: AVC (библиотека кодирования x.264)
Контейнер (Расширение): MKV
Видео: 1920x816, 7500 Кбит/сек, 23,976 кадр/сек, 0,200 Бит/[Пиксели*Кадры]
Аудио №1: русский / AC3 / 5.1 / 48 kHz / 640 kbps / 16 bit |Дублированный|
Аудио №2: русский / AC3 / 5.1 / 48 kHz / 448 kbps / 16 bit |Многоголосый закадровый|
Аудио №3: русский / AC3 / 5.1 / 48 kHz / 448 kbps / 16 bit |Авторский, Ю.Немахов|
Аудио №4: английский / AC3 / 5.1 / 48 kHz / 640 kbps /
Субтитры: русские (SDI Media Group), русские (Kinomanija / Pozitiv), английские
Навигация по главам(Чаптеры): есть
Продолжительность: 01:54:42
Автор рипа: Сообщество:

MediaInfo

Format : Matroska
Format version : Version 2
File size : 7.75 GiB
Duration : 1h 54mn
Overall bit rate : 9 675 Kbps
Movie name : Beowulf.(2007).BDRip.1080p.Director's Cut.[denis100]
Encoded date : UTC 2015-07-21 11:08:26
Writing application : mkvmerge v5.8.0 ('No Sleep / Pillow') built on Sep 2 2012 15:37:04
Writing library : libebml v1.2.3 + libmatroska v1.3.0
Video
ID : 1
Format : AVC
Format/Info : Advanced Video Codec
Format profile : High@L4.1
Format settings, CABAC : Yes
Format settings, ReFrames : 4 frames
Codec ID : V_MPEG4/ISO/AVC
Duration : 1h 54mn
Bit rate : 7 500 Kbps
Width : 1 920 pixels
Height : 816 pixels
Display aspect ratio : 2.35:1
Frame rate : 23.976 fps
Color space : YUV
Chroma subsampling : 4:2:0
Bit depth : 8 bits
Scan type : Progressive
Bits/(Pixel*Frame) : 0.200
Stream size : 5.85 GiB (76%)
Title : Beowulf.(2007).BDRip.1080p.Director's Cut.[denis100]
Writing library : x264 core 146 r2538 121396c
Encoding settings : cabac=1 / ref=4 / deblock=1:0:0 / analyse=0x3:0x133 / me=umh / subme=11 / psy=1 / psy_rd=1.00:0.00 / mixed_ref=1 / me_range=32 / chroma_me=1 / trellis=2 / 8x8dct=1 / cqm=0 / deadzone=21,11 / fast_pskip=0 / chroma_qp_offset=-2 / threads=6 / lookahead_threads=1 / sliced_threads=0 / nr=0 / decimate=1 / interlaced=0 / bluray_compat=0 / constrained_intra=0 / bframes=8 / b_pyramid=2 / b_adapt=2 / b_bias=0 / direct=3 / weightb=1 / open_gop=0 / weightp=2 / keyint=240 / keyint_min=23 / scenecut=40 / intra_refresh=0 / rc=2pass / mbtree=0 / bitrate=7500 / ratetol=1.0 / qcomp=0.60 / qpmin=0 / qpmax=69 / qpstep=4 / cplxblur=20.0 / qblur=0.5 / ip_ratio=1.40 / pb_ratio=1.30 / aq=1:1.00
Language : English
Default : Yes
Forced : No
Audio #1
ID : 2
Format : AC-3
Format/Info : Audio Coding 3
Mode extension : CM (complete main)
Codec ID : A_AC3
Duration : 1h 54mn
Bit rate mode : Constant
Bit rate : 640 Kbps
Channel(s) : 6 channels
Channel positions : Front: L C R, Side: L R, LFE
Sampling rate : 48.0 KHz
Bit depth : 16 bits
Compression mode : Lossy
Stream size : 525 MiB (7%)
Title : Дублированный
Language : Russian
Default : Yes
Forced : No
Audio #2
ID : 3
Format : AC-3
Format/Info : Audio Coding 3
Mode extension : CM (complete main)
Codec ID : A_AC3
Duration : 1h 54mn
Bit rate mode : Constant
Bit rate : 448 Kbps
Channel(s) : 6 channels
Channel positions : Front: L C R, Side: L R, LFE
Sampling rate : 48.0 KHz
Bit depth : 16 bits
Compression mode : Lossy
Stream size : 368 MiB (5%)
Title : Многоголосый закадровый
Language : Russian
Default : No
Forced : No
Audio #3
ID : 4
Format : AC-3
Format/Info : Audio Coding 3
Mode extension : CM (complete main)
Codec ID : A_AC3
Duration : 1h 54mn
Bit rate mode : Constant
Bit rate : 448 Kbps
Channel(s) : 6 channels
Channel positions : Front: L C R, Side: L R, LFE
Sampling rate : 48.0 KHz
Bit depth : 16 bits
Compression mode : Lossy
Stream size : 368 MiB (5%)
Title : Авторский, Ю.Немахов
Language : Russian
Default : No
Forced : No
Audio #4
ID : 5
Format : AC-3
Format/Info : Audio Coding 3
Mode extension : CM (complete main)
Codec ID : A_AC3
Duration : 1h 54mn
Bit rate mode : Constant
Bit rate : 640 Kbps
Channel(s) : 6 channels
Channel positions : Front: L C R, Side: L R, LFE
Sampling rate : 48.0 KHz
Bit depth : 16 bits
Compression mode : Lossy
Stream size : 525 MiB (7%)
Language : English
Default : No
Forced : No
Text #1
ID : 6
Format : UTF-8
Codec ID : S_TEXT/UTF8
Codec ID/Info : UTF-8 Plain Text
Title : SDI Media Group
Language : Russian
Default : No
Forced : No
Text #2
ID : 7
Format : UTF-8
Codec ID : S_TEXT/UTF8
Codec ID/Info : UTF-8 Plain Text
Title : Kinomanija / Pozitiv
Language : Russian
Default : No
Forced : No
Text #3
ID : 8
Format : UTF-8
Codec ID : S_TEXT/UTF8
Codec ID/Info : UTF-8 Plain Text
Language : English
Default : No
Forced : No
Menu
00:00:00.000 : en:00:00:00.000
00:05:33.334 : en:00:05:33.334
00:11:58.719 : en:00:11:58.719
00:17:30.217 : en:00:17:30.217
00:21:26.119 : en:00:21:26.119
00:28:47.226 : en:00:28:47.226
00:34:10.216 : en:00:34:10.216
00:38:07.119 : en:00:38:07.119
00:43:59.471 : en:00:43:59.471
00:49:10.782 : en:00:49:10.782
00:52:33.651 : en:00:52:33.651
00:55:44.342 : en:00:55:44.342
01:02:38.422 : en:01:02:38.422
01:08:38.282 : en:01:08:38.282
01:13:06.216 : en:01:13:06.216
01:19:20.423 : en:01:19:20.423
01:23:59.535 : en:01:23:59.535
01:26:50.206 : en:01:26:50.206
01:31:19.475 : en:01:31:19.475
01:34:21.991 : en:01:34:21.991
01:38:09.218 : en:01:38:09.218
01:42:52.501 : en:01:42:52.501
01:45:52.013 : en:01:45:52.013

x264

x264 [info]: frame I:932 Avg QP:11.08 size:262072
x264 [info]: frame P:49366 Avg QP:14.25 size: 71598
x264 [info]: frame B:114718 Avg QP:16.28 size: 23279

Скриншоты

Не жилим спасибо. Не забываем голосовать за трекер!!!

Топик был перенесен из форума Иностранные мультфильмы в форум Мультфильмы (HD Video)
LEONARDO


Показать сообщения:    

Текущее время: 23-Май 06:36

Часовой пояс: UTC + 3


Вы не можете начинать темы
Вы не можете отвечать на сообщения
Вы не можете редактировать свои сообщения
Вы не можете удалять свои сообщения
Вы не можете голосовать в опросах
Вы не можете прикреплять файлы к сообщениям
Вы не можете скачивать файлы

!ВНИМАНИЕ!
Сайт не предоставляет электронные версии произведений, а занимается лишь коллекционированием и каталогизацией ссылок, присылаемых и публикуемых на форуме нашими читателями. Если вы являетесь правообладателем какого-либо представленного материала и не желаете, чтобы ссылка на него находилась в нашем каталоге, свяжитесь с нами, и мы незамедлительно удалим ее. Файлы для обмена на трекере предоставлены пользователями сайта, и администрация не несет ответственности за их содержание. Просьба не заливать файлы, защищенные авторскими правами, а также файлы нелегального содержания!