۩ ‼ Вы находитесь на Бесплатном торрент-трекере TORRNADA.com ۩ Зарегистрируйтесь для получения полного доступа ко всем функциям сайта ! ۩ После регистрации подпишитесь на нашу рассылку в своём профиле ۩
Auto Web Pinger

 

[Цитировать]

Информация о фильме
Название: Возвращение героя
Оригинальное название: The Last Stand
Год выхода: 2013
Жанр: боевик, триллер, криминал
Режиссер: Ким Чжи Ун
В ролях: Арнольд Шварценеггер — шериф Рэй Оуэнс, Луис Гусман — Майк Фигерола, действующий помощник шерифа, Джейми Александр — Сара Торранс, действующий помощник шерифа, Зак Гилфорд — Джерри Бейли, погибший помощник шерифа, Родриго Санторо — Фрэнк Мартинес, друг погибшего Джерри и бойфренд Сары, Джонни Ноксвилл — Льюис Динкам, директор музея оружия, Эдуардо Норьега — Габриэль Кортес, Генезис Родригес — агент ФБР Эллен Ричардс, Петер Стормаре — Беррелл, руководитель группы, установившей мост, и впоследствии предпринявшей атаку на город, Форест Уитакер — федеральный агент Джон Баннистер, руководитель спецоперации ФБР по перевозке и преследованию Кортеса, Дэниел Хенни — Фил Хайес, агент ФБР, Гарри Дин Стэнтон — Парсонс, несговорчивый фермер.
О фильме:
Самая опасная и жестокая банда наркоторговцев сбегает из-под конвоя ФБР. Прихватив заложника, они мчатся к мексиканской границе. У них на пути стоит лишь тихий городок, за порядком в котором следит шериф Оуенс. Когда-то он был одним из лучших полицейских Лос-Анджелеса, теперь он вернулся.

Страна: США
Студия: Di Bonaventura Pictures, Lionsgate
Продолжительность: 01:47:13
Перевод: Дублированный, Авторский одноголосый, Оригинал
Файл
Кодек: x264
Качество: BDRip 720p
Видео: 1280x534 (2,40:1), 23.976 fps, 3163 kbps
Звук:
Аудио #1: AC3, 640 Kbps, 48.0 KHz, 6 ch (Rus) Дублированный, Студия "Пифагор"
Аудио #2: AC3, 448 Kbps, 48.0 KHz, 6 ch (Rus) Авторский одноголосый, А.Гаврилов
Аудио #3: AC3, 448 Kbps, 48.0 KHz, 6 ch (Rus) Авторский одноголосый, В.Горчаков
Аудио #4: AC3, 448 Kbps, 48.0 KHz, 6 ch (Rus) Авторский одноголосый, Л.Володарский
Аудио #5: AC3, 448 Kbps, 48.0 KHz, 6 ch (Eng) Оригинал
Субтитры: Русские (форс, полные), Английские

Скриншоты


MediaInfo

Формат : Matroska
Версия формата : Version 2
Размер файла : 4,28 Гбайт
Продолжительность : 1 ч. 47 м.
Общий поток : 5709 Кбит/сек
Дата кодирования : UTC 2015-07-21 09:10:10
Программа кодирования : mkvmerge v5.4.0 ('Piper') built on Mar 10 2012 13:34:39
Библиотека кодирования : libebml v1.2.3 + libmatroska v1.3.0
Видео
Идентификатор : 1
Формат : AVC
Формат/Информация : Advanced Video Codec
Профиль формата : High@L4.1
Параметр CABAC формата : Да
Параметр ReFrames формата : 8 кадров
Идентификатор кодека : V_MPEG4/ISO/AVC
Продолжительность : 1 ч. 47 м.
Битрейт : 3163 Кбит/сек
Ширина : 1280 пикселей
Высота : 534 пикселя
Соотношение сторон : 2,40:1
Режим частоты кадров : Постоянный
Частота кадров : 23,976 кадра/сек
Цветовое пространство : YUV
Субдискретизация насыщенности : 4:2:0
Битовая глубина : 8 бит
Тип развёртки : Прогрессивная
Бит/(Пиксели*Кадры) : 0.193
Размер потока : 2,37 Гбайт (55%)
Заголовок : The Last Stand / Возвращение героя / Последняя битва / Последний рубеж (2013)
Библиотека кодирования : x264 core 125 r2208 d9d2288
Настройки программы : cabac=1 / ref=8 / deblock=1:-3:-3 / analyse=0x3:0x133 / me=umh / subme=11 / psy=1 / psy_rd=1.00:0.05 / mixed_ref=1 / me_range=48 / chroma_me=1 / trellis=2 / 8x8dct=1 / cqm=0 / deadzone=21,11 / fast_pskip=0 / chroma_qp_offset=-3 / threads=12 / lookahead_threads=2 / sliced_threads=0 / nr=0 / decimate=1 / interlaced=0 / bluray_compat=0 / constrained_intra=0 / bframes=8 / b_pyramid=2 / b_adapt=2 / b_bias=0 / direct=1 / weightb=1 / open_gop=0 / weightp=2 / keyint=250 / keyint_min=23 / scenecut=40 / intra_refresh=0 / rc=crf / mbtree=0 / crf=17.5 / qcomp=0.60 / qpmin=0 / qpmax=69 / qpstep=4 / ip_ratio=1.40 / pb_ratio=1.30 / aq=2:1.00
Язык : English
Default : Да
Forced : Нет
Аудио #1
Идентификатор : 2
Формат : AC-3
Формат/Информация : Audio Coding 3
Расширение режима : CM (complete main)
Параметр Endianness формата : Big
Идентификатор кодека : A_AC3
Продолжительность : 1 ч. 47 м.
Вид битрейта : Постоянный
Битрейт : 640 Кбит/сек
Каналы : 6 каналов
Расположение каналов : Front: L C R, Side: L R, LFE
Частота : 48,0 КГц
Битовая глубина : 16 бит
Метод сжатия : С потерями
Размер потока : 491 Мбайт (11%)
Заголовок : DUB (Russian) Студия "Пифагор"
Язык : Russian
Default : Да
Forced : Нет
Аудио #2
Идентификатор : 3
Формат : AC-3
Формат/Информация : Audio Coding 3
Расширение режима : CM (complete main)
Параметр Endianness формата : Big
Идентификатор кодека : A_AC3
Продолжительность : 1 ч. 47 м.
Вид битрейта : Постоянный
Битрейт : 448 Кбит/сек
Каналы : 6 каналов
Расположение каналов : Front: L C R, Side: L R, LFE
Частота : 48,0 КГц
Битовая глубина : 16 бит
Метод сжатия : С потерями
Размер потока : 344 Мбайт (8%)
Заголовок : AVO (A.Гаврилов)
Язык : Russian
Default : Нет
Forced : Нет
Аудио #3
Идентификатор : 4
Формат : AC-3
Формат/Информация : Audio Coding 3
Расширение режима : CM (complete main)
Параметр Endianness формата : Big
Идентификатор кодека : A_AC3
Продолжительность : 1 ч. 47 м.
Вид битрейта : Постоянный
Битрейт : 448 Кбит/сек
Каналы : 6 каналов
Расположение каналов : Front: L C R, Side: L R, LFE
Частота : 48,0 КГц
Битовая глубина : 16 бит
Метод сжатия : С потерями
Размер потока : 344 Мбайт (8%)
Заголовок : AVO (В.Горчаков)
Язык : Russian
Default : Нет
Forced : Нет
Аудио #4
Идентификатор : 5
Формат : AC-3
Формат/Информация : Audio Coding 3
Расширение режима : CM (complete main)
Параметр Endianness формата : Big
Идентификатор кодека : A_AC3
Продолжительность : 1 ч. 47 м.
Вид битрейта : Постоянный
Битрейт : 448 Кбит/сек
Каналы : 6 каналов
Расположение каналов : Front: L C R, Side: L R, LFE
Частота : 48,0 КГц
Битовая глубина : 16 бит
Метод сжатия : С потерями
Размер потока : 344 Мбайт (8%)
Заголовок : AVO (Л.Володарский)
Язык : Russian
Default : Нет
Forced : Нет
Аудио #5
Идентификатор : 6
Формат : AC-3
Формат/Информация : Audio Coding 3
Расширение режима : CM (complete main)
Параметр Endianness формата : Big
Идентификатор кодека : A_AC3
Продолжительность : 1 ч. 47 м.
Вид битрейта : Постоянный
Битрейт : 448 Кбит/сек
Каналы : 6 каналов
Расположение каналов : Front: L C R, Side: L R, LFE
Частота : 48,0 КГц
Битовая глубина : 16 бит
Метод сжатия : С потерями
Размер потока : 344 Мбайт (8%)
Заголовок : Original (English)
Язык : English
Default : Нет
Forced : Нет
Текст #1
Идентификатор : 7
Формат : UTF-8
Идентификатор кодека : S_TEXT/UTF8
Идентификатор кодека/Информация : UTF-8 Plain Text
Заголовок : Rus forced
Язык : Russian
Default : Да
Forced : Да
Текст #2
Идентификатор : 8
Формат : UTF-8
Идентификатор кодека : S_TEXT/UTF8
Идентификатор кодека/Информация : UTF-8 Plain Text
Заголовок : Rus
Язык : Russian
Default : Нет
Forced : Нет
Текст #3
Идентификатор : 9
Формат : UTF-8
Идентификатор кодека : S_TEXT/UTF8
Идентификатор кодека/Информация : UTF-8 Plain Text
Заголовок : Eng
Язык : English
Default : Нет
Forced : Нет
Меню
00:00:00.000 : en:Chapter 01
00:03:57.028 : en:Chapter 02
00:13:09.955 : en:Chapter 03
00:18:55.760 : en:Chapter 04
00:25:51.507 : en:Chapter 05
00:30:48.889 : en:Chapter 06
00:36:10.835 : en:Chapter 07
00:47:04.029 : en:Chapter 08
00:50:23.312 : en:Chapter 09
00:59:50.337 : en:Chapter 10
01:07:37.470 : en:Chapter 11
01:14:32.426 : en:Chapter 12
01:21:47.027 : en:Chapter 13
01:25:38.008 : en:Chapter 14
01:28:49.908 : en:Chapter 15
01:34:31.332 : en:Chapter 16
Не жилим спасибо. Не забываем голосовать за трекер!!!


Показать сообщения:    

Текущее время: 24-Май 14:30

Часовой пояс: UTC + 3


Вы не можете начинать темы
Вы не можете отвечать на сообщения
Вы не можете редактировать свои сообщения
Вы не можете удалять свои сообщения
Вы не можете голосовать в опросах
Вы не можете прикреплять файлы к сообщениям
Вы не можете скачивать файлы

!ВНИМАНИЕ!
Сайт не предоставляет электронные версии произведений, а занимается лишь коллекционированием и каталогизацией ссылок, присылаемых и публикуемых на форуме нашими читателями. Если вы являетесь правообладателем какого-либо представленного материала и не желаете, чтобы ссылка на него находилась в нашем каталоге, свяжитесь с нами, и мы незамедлительно удалим ее. Файлы для обмена на трекере предоставлены пользователями сайта, и администрация не несет ответственности за их содержание. Просьба не заливать файлы, защищенные авторскими правами, а также файлы нелегального содержания!